<svg xmlns="http://www.w3.org/2000/svg"><defs><font id="OpenSans" horiz-adv-x="1250"><font-face font-family="Open Sans SemiBold" units-per-em="2048" panose-1="2 11 7 6 3 8 4 2 2 4" ascent="2189" descent="-600" alphabetic="0"/><glyph glyph-name="space" horiz-adv-x="532"/><glyph unicode="!" glyph-name="exclam" horiz-adv-x="565" d="M371 444H197l-52 1018h277L371 444zM133 125q0 74 39 112t111 39q71 0 109-40t38-111q0-71-38-112T283-29q-71 0-110 40t-40 114z"/><glyph unicode="&quot;" glyph-name="quotedbl" horiz-adv-x="893" d="M365 1462l-41-528H174l-41 528h232zm395 0l-41-528H569l-41 528h232z"/><glyph unicode="#" glyph-name="numbersign" horiz-adv-x="1323" d="M989 870l-55-284h270V418H901L821 0H643l80 418H475L395 0H221l76 418H47v168h283l57 284H123v168h293l80 422h180l-80-422h252l80 422h174l-80-422h252V870H989zM506 586h250l57 284H563l-57-284z"/><glyph unicode="$" glyph-name="dollar" horiz-adv-x="1169" d="M1063 453q0-145-106-239T651 98v-217H518V92q-248 4-407 76v211q86-42 201-70t206-30v374l-84 31q-164 63-239 150t-76 217q0 138 107 227t292 108v168h133v-165q203-7 385-82l-73-183q-157 62-312 74V834l76-29q190-73 263-154t73-198zm-236-15q0 58-40 95t-136 73V287q176 27 176 151zm-473 615q0-57 35-95t129-75v311q-80-12-122-49t-42-92z"/><glyph unicode="%" glyph-name="percent" horiz-adv-x="1765" d="M279 1024q0-149 29-222t95-73q132 0 132 295t-132 295q-66 0-95-73t-29-222zm450 2q0-230-82-345T403 565q-152 0-235 119t-84 342q0 457 319 457 157 0 241-118t85-339zm502-586q0-149 29-223t96-74q131 0 131 297 0 293-131 293-66 0-95-72t-30-221zm450 0q0-230-83-345T1356-20q-152 0-236 118t-84 342q0 457 320 457 154 0 239-118t86-339zm-297 1022L573 0H379l811 1462h194z"/><glyph unicode="&amp;" glyph-name="ampersand" horiz-adv-x="1516" d="M451 1147q0-63 33-119t94-119q113 64 158 119t46 125q0 65-43 104t-116 39q-79 0-125-40t-47-109zm149-965q183 0 313 107L530 666q-106-68-146-127t-40-136q0-98 69-159t187-62zM96 387q0 131 64 228t231 194q-95 111-129 187t-35 159q0 152 108 240t292 88q177 0 278-85t101-231q0-114-67-207T713 774l346-334q81 107 135 314h242q-70-284-224-463L1513 0h-303l-149 145Q959 63 844 22T588-20Q358-20 227 89T96 387z"/><glyph unicode="'" glyph-name="quotesingle" horiz-adv-x="498" d="M365 1462l-41-528H174l-41 528h232z"/><glyph unicode="(" glyph-name="parenleft" horiz-adv-x="649" d="M82 561q0 265 77 496t224 405h205q-139-188-213-421t-74-478q0-244 74-473t211-414H383Q236-154 159 73T82 561z"/><glyph unicode=")" glyph-name="parenright" horiz-adv-x="649" d="M567 561q0-263-77-490T266-324H63Q201-137 274 91t74 472q0 245-74 477T61 1462h205q147-175 224-406t77-495z"/><glyph unicode="*" glyph-name="asterisk" horiz-adv-x="1122" d="M672 1556l-41-382 385 108 28-217-360-29 236-311-199-107-166 338-149-338-205 107 231 311-358 29 35 217 376-108-41 382h228z"/><glyph unicode="+" glyph-name="plus" horiz-adv-x="1169" d="M494 633H96v178h398v408h180V811h399V633H674V227H494v406z"/><glyph unicode="," glyph-name="comma" horiz-adv-x="547" d="M412 215Q364 29 236-264H63Q132 6 166 238h231l15-23z"/><glyph unicode="-" glyph-name="hyphen" horiz-adv-x="659" d="M72 449v200h514V449H72z"/><glyph unicode="." glyph-name="period" horiz-adv-x="563" d="M133 125q0 73 38 112t110 39q73 0 111-40t38-111q0-71-38-112T281-29q-72 0-110 41t-38 113z"/><glyph unicode="/" glyph-name="slash" horiz-adv-x="799" d="M782 1462L238 0H16l545 1462h221z"/><glyph unicode="0" glyph-name="zero" horiz-adv-x="1169" d="M1081 731q0-381-122-566T584-20q-244 0-370 191T88 731q0 387 122 570t374 184q245 0 371-192t126-562zm-755 0q0-299 61-427t197-128q135 0 197 130t63 425q0 294-62 425t-198 132q-135 0-196-129t-62-428z"/><glyph unicode="1" glyph-name="one" horiz-adv-x="1169" d="M780 0H545v944q0 169 8 268-23-24-56-53T272 975l-118 149 430 338h196V0z"/><glyph unicode="2" glyph-name="two" horiz-adv-x="1169" d="M1081 0H90v178l377 379q167 171 221 242t80 135 25 135q0 99-59 156t-165 57q-84 0-162-31t-182-112L98 1294q122 103 237 146t245 43q204 0 327-106t123-287q0-99-35-188T886 719 641 463L387 217v-10h694V0z"/><glyph unicode="3" glyph-name="three" horiz-adv-x="1169" d="M1026 1126q0-139-81-231T717 770v-8q176-22 264-109t88-233q0-211-149-325T496-20Q253-20 86 59v209q93-46 197-71t200-25q170 0 254 63t84 195q0 117-93 172t-292 55H309v191h129q350 0 350 242 0 94-61 145t-180 51q-83 0-160-23t-182-92L90 1335q201 148 467 148 221 0 345-95t124-262z"/><glyph unicode="4" glyph-name="four" horiz-adv-x="1169" d="M1133 319H936V0H707v319H39v181l668 966h229V514h197V319zM707 514v367q0 196 10 321h-8q-28-66-88-160L258 514h449z"/><glyph unicode="5" glyph-name="five" horiz-adv-x="1169" d="M586 913q221 0 350-117t129-319q0-234-146-365T502-20q-245 0-385 79v213q81-46 186-71t195-25q159 0 242 71t83 208q0 262-334 262-47 0-116-9t-121-22l-105 62 56 714h760v-209H410l-33-362q35 6 85 14t124 8z"/><glyph unicode="6" glyph-name="six" horiz-adv-x="1169" d="M94 623q0 858 699 858 110 0 186-17v-196q-76 22-176 22-235 0-353-126T322 760h12q47 81 132 125t200 45q199 0 310-122t111-331q0-230-128-363T608-20q-157 0-273 75T157 275 94 623zm510-449q121 0 186 78t66 223q0 126-61 198t-185 72q-76 0-140-32t-101-89-37-116q0-141 76-237t196-97z"/><glyph unicode="7" glyph-name="seven" horiz-adv-x="1169" d="M256 0l578 1253H74v207h1011v-164L510 0H256z"/><glyph unicode="8" glyph-name="eight" horiz-adv-x="1169" d="M584 1481q208 0 329-95t121-256q0-225-270-358 172-86 244-181t73-212q0-181-133-290T588-20Q350-20 219 82T88 371q0 122 68 219t225 174q-134 80-191 169t-57 200q0 159 125 253t326 95zM313 379q0-104 73-161t198-58q129 0 200 59t72 162q0 81-66 148T590 653l-29 13q-132-58-190-127t-58-160zm269 921q-100 0-161-49t-61-135q0-52 22-93t64-74 142-81q120 53 169 111t50 137q0 85-61 134t-164 50z"/><glyph unicode="9" glyph-name="nine" horiz-adv-x="1169" d="M1079 838q0-432-174-645T381-20Q248-20 190-4v197q89-25 179-25 238 0 355 128t128 402h-12q-59-90-142-130t-196-40q-194 0-305 121T86 981q0 229 128 364t351 136q156 0 272-76t179-220 63-347zm-510 448q-122 0-187-79t-65-224q0-125 60-196t184-72q119 0 200 71t81 166q0 89-34 166t-97 123-142 45z"/><glyph unicode=":" glyph-name="colon" horiz-adv-x="563" d="M133 125q0 73 38 112t110 39q73 0 111-40t38-111q0-71-38-112T281-29q-72 0-110 41t-38 113zm0 854q0 151 148 151 75 0 112-40t37-111q0-71-38-112t-111-42q-72 0-110 41t-38 113z"/><glyph unicode=";" glyph-name="semicolon" horiz-adv-x="569" d="M397 238l15-23Q364 29 236-264H63Q132 6 166 238h231zM131 979q0 151 148 151 75 0 112-40t37-111q0-71-38-112t-111-42q-72 0-110 41t-38 113z"/><glyph unicode="&lt;" glyph-name="less" horiz-adv-x="1169" d="M1073 221L96 651v121l977 488v-195L340 721l733-303V221z"/><glyph unicode="=" glyph-name="equal" horiz-adv-x="1169" d="M102 831v179h963V831H102zm0-399v178h963V432H102z"/><glyph unicode="&gt;" glyph-name="greater" horiz-adv-x="1169" d="M96 418l733 303-733 344v195l977-488V651L96 221v197z"/><glyph unicode="?" glyph-name="question" horiz-adv-x="928" d="M283 444v64q0 110 40 183t140 151q119 94 153 146t35 124q0 84-56 129t-161 45q-95 0-176-27t-158-65l-84 176q203 113 435 113 196 0 311-96t115-265q0-75-22-133t-66-112-154-138q-93-73-124-121t-32-129v-45H283zm-41-319q0 151 147 151 72 0 110-39t38-112q0-71-38-112T389-29q-71 0-109 40t-38 114z"/><glyph unicode="@" glyph-name="at" horiz-adv-x="1839" d="M1726 739q0-143-45-261t-126-185-189-66q-79 0-137 42t-78 114h-12q-49-78-121-117t-162-39q-163 0-256 105t-94 284q0 206 124 334t333 129q76 0 168-13t165-38l-22-465v-24q0-160 104-160 79 0 125 102t47 260q0 171-70 300t-199 200-296 70q-213 0-370-88T374 972t-83-380q0-290 155-446T891-10q221 0 461 90V-84q-210-86-457-86-370 0-577 199T111 586q0 261 112 464t310 312 450 108q217 0 386-90t263-256 94-385zM698 612q0-233 183-233 193 0 211 293l12 239q-63 17-135 17-128 0-199-85t-72-231z"/><glyph unicode="A" glyph-name="A" horiz-adv-x="1354" d="M1100 0L954 406H395L252 0H0l547 1468h260L1354 0h-254zM891 612l-137 398q-15 40-41 126t-37 126q-27-123-79-269L465 612h426z"/><glyph unicode="B" glyph-name="B" horiz-adv-x="1352" d="M193 1462h434q302 0 436-88t135-278q0-128-66-213T942 776v-10q154-29 226-114t73-232q0-197-137-308T721 0H193v1462zm239-604h230q150 0 219 47t69 162q0 103-74 149t-237 46H432V858zm0-194V201h254q150 0 226 57t77 182q0 114-78 169t-237 55H432z"/><glyph unicode="C" glyph-name="C" horiz-adv-x="1298" d="M815 1278q-206 0-324-146T373 729q0-269 113-407t329-138q93 0 180 18t181 48V45q-172-65-390-65-321 0-493 194T121 731q0 228 83 399t242 262 371 91q224 0 414-94l-86-199q-74 35-156 61t-174 27z"/><glyph unicode="D" glyph-name="D" horiz-adv-x="1503" d="M1382 745q0-362-201-553T602 0H193v1462h452q349 0 543-188t194-529zm-252-8q0 525-491 525H432V201h170q528 0 528 536z"/><glyph unicode="E" glyph-name="E" horiz-adv-x="1143" d="M1020 0H193v1462h827v-202H432V862h551V662H432V203h588V0z"/><glyph unicode="F" glyph-name="F" horiz-adv-x="1090" d="M430 0H193v1462h825v-202H430V803h551V600H430V0z"/><glyph unicode="G" glyph-name="G" horiz-adv-x="1487" d="M791 793h538V59q-132-43-253-61T813-20q-332 0-512 196T121 731q0 353 203 552t559 200q229 0 434-88l-84-199q-178 82-356 82-234 0-370-147T371 729q0-268 122-407t353-140q116 0 248 29v377H791v205z"/><glyph unicode="H" glyph-name="H" horiz-adv-x="1538" d="M1346 0h-240v659H432V0H193v1462h239V864h674v598h240V0z"/><glyph unicode="I" glyph-name="I" horiz-adv-x="625" d="M193 0v1462h239V0H193z"/><glyph unicode="J" glyph-name="J" horiz-adv-x="612" d="M8-408q-98 0-164 25v201q84-21 146-21 196 0 196 248v1417h240V53q0-224-106-342T8-408z"/><glyph unicode="K" glyph-name="K" horiz-adv-x="1309" d="M1309 0h-277L573 662 432 547V0H193v1462h239V764q98 120 195 231l395 467h272q-383-450-549-641L1309 0z"/><glyph unicode="L" glyph-name="L" horiz-adv-x="1110" d="M193 0v1462h239V205h619V0H193z"/><glyph unicode="M" glyph-name="M" horiz-adv-x="1890" d="M825 0L401 1221h-8q17-272 17-510V0H193v1462h337L936 299h6l418 1163h338V0h-230v723q0 109 5 284t10 212h-8L1036 0H825z"/><glyph unicode="N" glyph-name="N" horiz-adv-x="1604" d="M1411 0h-293L399 1165h-8l5-65q14-186 14-340V0H193v1462h290l717-1159h6q-2 23-8 167t-6 226v766h219V0z"/><glyph unicode="O" glyph-name="O" horiz-adv-x="1612" d="M1491 733q0-357-178-555T807-20q-331 0-508 196T121 735q0 362 178 556t510 194q326 0 504-197t178-555zm-1116 0q0-270 109-409t323-140q213 0 321 138t109 411q0 269-107 408t-321 139q-215 0-324-139T375 733z"/><glyph unicode="P" glyph-name="P" horiz-adv-x="1260" d="M1161 1020q0-229-150-351T584 547H432V0H193v1462h421q274 0 410-112t137-330zM432 748h127q184 0 270 64t86 200q0 126-77 188t-240 62H432V748z"/><glyph unicode="Q" glyph-name="Q" horiz-adv-x="1612" d="M1491 733q0-266-101-448T1094 29l350-377h-322L846-20h-39q-331 0-508 196T121 735q0 362 178 556t510 194q326 0 504-197t178-555zm-1116 0q0-270 109-409t323-140q213 0 321 138t109 411q0 269-107 408t-321 139q-215 0-324-139T375 733z"/><glyph unicode="R" glyph-name="R" horiz-adv-x="1309" d="M432 782h166q167 0 242 62t75 184q0 124-81 178t-244 54H432V782zm0-198V0H193v1462h413q283 0 419-106t136-320q0-273-284-389L1290 0h-272L668 584H432z"/><glyph unicode="S" glyph-name="S" horiz-adv-x="1126" d="M1036 397q0-195-141-306T506-20q-248 0-406 77v226q100-47 212-74t210-27q142 0 209 54t68 145q0 82-62 139T481 655q-200 81-282 185t-82 250q0 183 130 288t349 105q210 0 418-92l-76-195q-195 82-348 82-116 0-176-50t-60-134q0-57 24-97t79-77 198-95q161-67 236-125t110-131 35-172z"/><glyph unicode="T" glyph-name="T" horiz-adv-x="1159" d="M698 0H459v1257H29v205h1099v-205H698V0z"/><glyph unicode="U" glyph-name="U" horiz-adv-x="1520" d="M1339 1462V516q0-162-69-283T1069 46 754-20q-272 0-423 144T180 520v942h240V537q0-181 84-267t258-86q338 0 338 355v923h239z"/><glyph unicode="V" glyph-name="V" horiz-adv-x="1274" d="M1026 1462h248L762 0H510L0 1462h246l305-909q24-65 51-167t35-153q13 76 40 176t44 148l305 905z"/><glyph unicode="W" glyph-name="W" horiz-adv-x="1937" d="M1542 0h-260l-248 872q-16 57-40 164t-29 150q-10-64-32-166t-38-152L653 0H393L204 732 12 1462h244l209-852q49-205 70-362 11 85 33 190t40 170l238 854h237l244-858q35-119 74-356 15 143 72 364l208 850h242L1542 0z"/><glyph unicode="X" glyph-name="X" horiz-adv-x="1274" d="M1270 0H995L629 598 260 0H4l485 758-454 704h266l338-553 338 553h258L778 754 1270 0z"/><glyph unicode="Y" glyph-name="Y" horiz-adv-x="1212" d="M606 795l346 667h260L725 567V0H485v559L0 1462h260l346-667z"/><glyph unicode="Z" glyph-name="Z" horiz-adv-x="1178" d="M1112 0H66v166l737 1091H86v205h1006v-168L352 205h760V0z"/><glyph unicode="[" glyph-name="bracketleft" horiz-adv-x="676" d="M625-324H154v1786h471v-176H369V-147h256v-177z"/><glyph unicode="\" glyph-name="backslash" horiz-adv-x="799" d="M238 1462L782 0H561L16 1462h222z"/><glyph unicode="]" glyph-name="bracketright" horiz-adv-x="676" d="M51-147h256v1433H51v176h469V-324H51v177z"/><glyph unicode="^" glyph-name="asciicircum" horiz-adv-x="1100" d="M29 535l436 935h121l485-935H877l-349 694-307-694H29z"/><glyph unicode="_" glyph-name="underscore" horiz-adv-x="879" d="M883-319H-4v135h887v-135z"/><glyph unicode="`" glyph-name="grave" horiz-adv-x="1212" d="M690 1241q-69 52-174 150t-154 157v21h273q38-70 103-161t110-142v-25H690z"/><glyph unicode="a" glyph-name="a" horiz-adv-x="1188" d="M860 0l-47 154h-8Q725 53 644 17T436-20q-163 0-254 88T90 317q0 171 127 258t387 95l191 6v59q0 106-49 158t-154 53q-85 0-163-25t-150-59l-76 168q90 47 197 71t202 25q211 0 318-92t108-289V0H860zM510 160q128 0 205 71t78 201v96l-142-6q-166-6-241-55t-76-152q0-74 44-114t132-41z"/><glyph unicode="b" glyph-name="b" horiz-adv-x="1276" d="M733 1126q207 0 322-150t116-421q0-272-117-423T729-20q-210 0-326 151h-16L344 0H168v1556h235v-370q0-41-4-122t-6-103h10q112 165 330 165zm-61-192q-142 0-204-83t-65-280v-16q0-202 64-292t209-91q125 0 189 99t65 286q0 377-258 377z"/><glyph unicode="c" glyph-name="c" horiz-adv-x="1014" d="M614-20q-251 0-381 146T102 547q0 279 136 429t395 150q175 0 315-65l-71-189q-149 58-246 58-287 0-287-381 0-186 71-279t210-94q157 0 297 78V49Q859 12 788-4T614-20z"/><glyph unicode="d" glyph-name="d" horiz-adv-x="1276" d="M541-20q-207 0-323 150T102 551q0 272 117 423t326 152q218 0 332-161h12q-17 119-17 188v403h236V0H924l-41 145h-11Q759-20 541-20zm63 190q145 0 211 81t68 265v33q0 209-68 297t-213 88q-124 0-191-100t-67-287q0-184 65-280t195-97z"/><glyph unicode="e" glyph-name="e" horiz-adv-x="1180" d="M651-20q-258 0-403 150T102 545q0 271 135 426t371 155q219 0 346-133t127-366V500H344q5-161 87-247t231-87q98 0 182 18t182 62V55Q940 14 852-3T651-20zm-43 968q-112 0-179-71t-81-207h502q-2 137-66 207t-176 71z"/><glyph unicode="f" glyph-name="f" horiz-adv-x="743" d="M723 928H453V0H217v928H35v110l182 72v72q0 196 92 290t281 95q124 0 244-41l-62-178q-87 28-166 28-80 0-116-49t-37-149v-72h270V928z"/><glyph unicode="g" glyph-name="g" horiz-adv-x="1139" d="M1102 1106V977l-189-35q26-35 43-86t17-108q0-171-118-269t-325-98q-53 0-96 8-76-47-76-110 0-38 35-57t131-19h193q183 0 278-78t95-225q0-188-155-290T487-492q-226 0-345 80T23-184Q23-82 87-13t181 97q-47 20-77 64t-31 94q0 62 35 105t104 85q-86 37-139 120t-54 196q0 180 113 279t324 99q47 0 98-6t78-14h383zM233-172q0-76 68-117t193-41q192 0 286 55t94 146q0 72-51 102T631 4H453Q352 4 293-43t-60-129zm101 920q0-104 53-160t154-56q204 0 204 218 0 108-50 166t-154 59q-102 0-154-58t-53-169z"/><glyph unicode="h" glyph-name="h" horiz-adv-x="1300" d="M1141 0H905v680q0 128-51 191t-164 63q-148 0-217-88t-70-297V0H168v1556h235v-395q0-95-12-203h15q48 80 133 124t200 44q402 0 402-405V0z"/><glyph unicode="i" glyph-name="i" horiz-adv-x="571" d="M403 0H168v1106h235V0zM154 1399q0 63 34 97t99 34q62 0 96-34t35-97q0-60-34-94t-97-35q-64 0-98 34t-35 95z"/><glyph unicode="j" glyph-name="j" horiz-adv-x="571" d="M55-492q-106 0-176 25v186q68-18 139-18 150 0 150 170v1235h235V-145q0-171-89-259T55-492zm99 1891q0 63 34 97t99 34q62 0 96-34t35-97q0-60-34-94t-97-35q-64 0-98 34t-35 95z"/><glyph unicode="k" glyph-name="k" horiz-adv-x="1171" d="M395 584l133 166 334 356h271L688 631 1161 0H885L530 485 401 379V0H168v1556h233V797l-12-213h6z"/><glyph unicode="l" glyph-name="l" horiz-adv-x="571" d="M403 0H168v1556h235V0z"/><glyph unicode="m" glyph-name="m" horiz-adv-x="1958" d="M1100 0H864v682q0 127-48 189t-150 63q-136 0-199-88t-64-295V0H168v1106h184l33-145h12q46 79 133 122t193 43q255 0 338-174h16q49 82 138 128t204 46q198 0 288-100t91-305V0h-235v682q0 127-48 189t-151 63q-137 0-200-85t-64-263V0z"/><glyph unicode="n" glyph-name="n" horiz-adv-x="1300" d="M1141 0H905v680q0 128-51 191t-164 63q-149 0-218-88t-69-295V0H168v1106h184l33-145h12q50 79 142 122t204 43q398 0 398-405V0z"/><glyph unicode="o" glyph-name="o" horiz-adv-x="1251" d="M1149 555q0-271-139-423T623-20q-155 0-274 70T166 251t-64 304q0 269 138 420t389 151q240 0 380-154t140-417zm-805 0q0-383 283-383 280 0 280 383 0 379-282 379-148 0-214-98t-67-281z"/><glyph unicode="p" glyph-name="p" horiz-adv-x="1276" d="M729-20q-210 0-326 151h-14Q403-9 403-39v-453H168v1598h190q8-31 33-148h12q110 168 330 168 207 0 322-150t116-421q0-271-117-423T729-20zm-57 954q-140 0-204-82t-65-262v-35q0-202 64-292t209-91q122 0 188 100t66 285q0 186-65 281t-193 96z"/><glyph unicode="q" glyph-name="q" horiz-adv-x="1276" d="M606 168q148 0 212 85t65 259v37q0 205-66 295t-215 90q-126 0-192-100t-66-287q0-379 262-379zM539-20q-205 0-321 150T102 551q0 270 118 422t325 153q104 0 186-38t148-127h8l26 145h195V-492H872v469q0 44 4 93t7 75h-13Q766-20 539-20z"/><glyph unicode="r" glyph-name="r" horiz-adv-x="883" d="M729 1126q71 0 117-10l-23-219q-50 12-104 12-141 0-228-92t-88-239V0H168v1106h184l31-195h12q55 99 143 157t191 58z"/><glyph unicode="s" glyph-name="s" horiz-adv-x="997" d="M911 315q0-162-118-248T455-20q-221 0-355 67v203q195-90 363-90 217 0 217 131 0 42-24 70t-79 58-153 68q-191 74-258 148T98 827q0 142 114 220t312 79q195 0 369-79l-76-177q-179 74-301 74-186 0-186-106 0-52 48-88t212-99q137-53 199-97t92-101 30-138z"/><glyph unicode="t" glyph-name="t" horiz-adv-x="805" d="M580 170q86 0 172 27V20Q713 3 652-8T524-20q-334 0-334 352v596H39v104l162 86 80 234h145v-246h315V928H426V336q0-85 42-125t112-41z"/><glyph unicode="u" glyph-name="u" horiz-adv-x="1300" d="M948 0l-33 145h-12Q854 68 764 24T557-20Q356-20 257 80t-99 303v723h237V424q0-127 52-190t163-64q148 0 217 88t70 297v551h236V0H948z"/><glyph unicode="v" glyph-name="v" horiz-adv-x="1096" d="M420 0L0 1106h248l225-643q58-162 70-262h8q9 72 70 262l225 643h250L674 0H420z"/><glyph unicode="w" glyph-name="w" horiz-adv-x="1673" d="M1075 0L932 516q-26 82-94 381h-9q-58-270-92-383L590 0H330L20 1106h240l141-545q48-202 68-346h6q10 73 30 167t36 142l168 582h258l163-582q15-49 37-150t27-157h8q15 123 70 344l143 545h236L1339 0h-264z"/><glyph unicode="x" glyph-name="x" horiz-adv-x="1128" d="M414 565L43 1106h268l252-387 254 387h266L711 565 1102 0H836L563 414 291 0H25l389 565z"/><glyph unicode="y" glyph-name="y" horiz-adv-x="1098" d="M0 1106h256l225-627q51-134 68-252h8q9 55 33 133t254 746h254L625-147Q496-492 195-492q-78 0-152 17v186q53-12 121-12 170 0 239 197L444 0 0 1106z"/><glyph unicode="z" glyph-name="z" horiz-adv-x="979" d="M907 0H68v145l559 781H102v180h789V942L344 180h563V0z"/><glyph unicode="{" glyph-name="braceleft" horiz-adv-x="791" d="M311 287q0 186-266 186v191q135 0 200 45t66 139v311q0 156 108 229t326 74v-182q-114-5-165-46t-52-124V813q0-199-229-238v-12q229-36 229-237V27q0-82 51-124t166-44v-183q-231 2-332 78T311 2v285z"/><glyph unicode="|" glyph-name="bar" horiz-adv-x="1128" d="M473 1552h180V-481H473v2033z"/><glyph unicode="}" glyph-name="braceright" horiz-adv-x="760" d="M463-20q0-156-99-229T45-324v183q95 1 148 38t53 130v262q0 121 53 187t176 87v12q-229 39-229 238v297q0 82-45 123t-156 47v182q223 0 320-76t98-251V848q0-100 63-142t189-42V473q-123 0-187-42t-65-144V-20z"/><glyph unicode="~" glyph-name="asciitilde" horiz-adv-x="1169" d="M330 692q-50 0-111-30T96 571v191q99 108 250 108 66 0 125-13t147-50q131-55 220-55 52 0 114 31t121 89V682Q968 571 823 571q-65 0-127 15t-147 51q-127 55-219 55z"/><glyph glyph-name="nbspace" horiz-adv-x="532"/><glyph unicode="¡" glyph-name="exclamdown" horiz-adv-x="565" d="M193 645h174l51-1016H141l52 1016zm237 320q0-74-37-113t-112-39q-72 0-110 39t-38 113q0 69 38 111t110 42q72 0 110-40t39-113z"/><glyph unicode="¢" glyph-name="cent" horiz-adv-x="1169" d="M987 238q-119-59-258-64V-20H573v200q-207 31-307 171T166 741q0 254 100 397t307 175v170h158v-162q152-5 283-66l-70-188q-146 59-250 59-146 0-216-95t-70-288q0-194 72-283t210-89q75 0 142 15t155 52V238z"/><glyph unicode="£" glyph-name="sterling" horiz-adv-x="1169" d="M690 1481q194 0 375-82l-76-182q-162 71-284 71-205 0-205-219V825h397V653H500V471q0-91-33-155T354 207h756V0H72v195q98 30 145 96t47 178v184H76v172h188v256q0 188 113 294t313 106z"/><glyph unicode="¤" glyph-name="currency" horiz-adv-x="1169" d="M186 723q0 109 64 213l-133 133 121 119 131-129q100 63 215 63t213-65l133 131 121-117-131-133q63-100 63-215 0-119-63-217l129-129-119-119-133 129q-99-61-213-61-126 0-215 61L238 260 119 379l131 129q-64 99-64 215zm168 0q0-98 68-164t162-67q97 0 165 66t68 165q0 97-68 165t-165 68q-93 0-161-68t-69-165z"/><glyph unicode="¥" glyph-name="yen" horiz-adv-x="1169" d="M584 797l321 665h244L750 702h227V551H696V397h281V244H696V0H471v244H188v153h283v154H188v151h224L18 1462h246l320-665z"/><glyph unicode="¦" glyph-name="brokenbar" horiz-adv-x="1128" d="M473 1552h180V758H473v794zm0-1237h180v-796H473v796z"/><glyph unicode="§" glyph-name="section" horiz-adv-x="1026" d="M129 807q0 80 38 145t112 109q-146 83-146 235 0 129 109 202t295 73q91 0 174-17t182-59l-68-162q-116 50-176 63t-121 13q-194 0-194-109 0-54 55-93t191-91q175-68 250-146t75-188q0-177-139-266 139-80 139-223 0-142-118-224T461-14q-212 0-346 71v179q77-40 173-65t177-26q235 0 235 131 0 43-21 70t-71 54-147 65q-141 55-206 101t-95 105-31 136zm184 20q0-45 24-80t78-69 195-90q109 65 109 168 0 75-62 126T436 987q-54-16-88-61t-35-99z"/><glyph unicode="¨" glyph-name="dieresis" horiz-adv-x="1212" d="M293 1399q0 62 33 89t82 28q53 0 84-31t32-86q0-53-32-85t-84-32q-48 0-81 29t-34 88zm393 0q0 62 33 89t82 28q53 0 85-31t32-86q0-54-33-85t-84-32q-48 0-81 29t-34 88z"/><glyph unicode="©" glyph-name="copyright" horiz-adv-x="1704" d="M893 1034q-111 0-171-80t-60-223q0-147 54-226t177-79q55 0 118 15t109 36V319q-115-51-235-51-197 0-305 120T471 731q0 214 110 337t306 124q138 0 274-70l-65-143q-106 55-203 55zM100 731q0 200 100 375t275 276 377 101q200 0 375-100t276-275 101-377q0-197-97-370T1235 84 852-20Q645-20 470 83T198 360t-98 371zm123 0q0-170 84-315t231-230 314-84q170 0 316 85t229 230 84 314q0 168-84 314t-231 231-314 84q-168 0-312-83t-231-229-86-317z"/><glyph unicode="ª" glyph-name="ordfeminine" horiz-adv-x="754" d="M547 782l-29 97q-46-55-105-82t-130-27q-113 0-169 52T57 981q0 104 84 159t252 62l107 4q0 72-34 108t-104 36q-90 0-210-56l-54 115q144 70 285 70 138 0 207-62t69-188V782H547zm-146 316q-71-2-125-34t-55-81q0-88 96-88 91 0 137 41t46 123v43l-99-4z"/><glyph unicode="«" glyph-name="guillemotleft" horiz-adv-x="1139" d="M82 561l356 432 168-94-282-350 282-348-168-97L82 535v26zm450 0l357 432 168-94-283-350 283-348-168-97-357 431v26z"/><glyph unicode="¬" glyph-name="logicalnot" horiz-adv-x="1169" d="M1073 256H895v377H96v178h977V256z"/><glyph unicode="­" glyph-name="uni00AD" horiz-adv-x="659" d="M72 449v200h514V449H72z"/><glyph unicode="®" glyph-name="registered" horiz-adv-x="1704" d="M748 770h69q74 0 112 35t38 100q0 72-36 100t-116 29h-67V770zm409 139q0-171-153-233l237-397h-211L838 625h-90V279H559v903h262q174 0 255-68t81-205zM100 731q0 200 100 375t275 276 377 101q200 0 375-100t276-275 101-377q0-197-97-370T1235 84 852-20Q645-20 470 83T198 360t-98 371zm123 0q0-170 84-315t231-230 314-84q170 0 316 85t229 230 84 314q0 168-84 314t-231 231-314 84q-168 0-312-83t-231-229-86-317z"/><glyph unicode="¯" glyph-name="overscore" horiz-adv-x="1024" d="M1030 1556H-6v164h1036v-164z"/><glyph unicode="°" glyph-name="degree" horiz-adv-x="877" d="M109 1153q0 135 95 232t234 98q138 0 233-96t95-234q0-139-96-233t-232-95q-88 0-164 43T153 988t-44 165zm153 0q0-70 51-122t125-52q74 0 125 51t51 123q0 76-52 127t-124 51q-72 0-124-52t-52-126z"/><glyph unicode="±" glyph-name="plusminus" horiz-adv-x="1169" d="M494 664H96v178h398v407h180V842h399V664H674V258H494v406zM96 0v178h977V0H96z"/><glyph unicode="²" glyph-name="twosuperior" horiz-adv-x="743" d="M678 586H51v135l230 225q117 112 149 165t33 112q0 52-32 79t-83 27q-93 0-201-88l-94 121q139 119 309 119 136 0 211-66t76-180q0-83-46-158T420 874L281 745h397V586z"/><glyph unicode="³" glyph-name="threesuperior" horiz-adv-x="743" d="M645 1251q0-75-40-122t-120-87q94-21 141-76t48-132q0-127-93-196t-266-69q-148 0-270 62v157q145-79 270-79 179 0 179 135 0 125-199 125H180v133h105q184 0 184 129 0 52-34 80t-91 28q-57 0-105-20t-106-57l-84 114q61 46 134 75t171 30q134 0 212-61t79-169z"/><glyph unicode="´" glyph-name="acute" horiz-adv-x="1212" d="M362 1241v25q57 70 117 156t96 147h273v-21q-52-61-155-157t-175-150H362z"/><glyph unicode="µ" glyph-name="mu" horiz-adv-x="1309" d="M403 422q0-252 218-252 146 0 215 88t69 297v551h236V0H958l-34 147h-13Q863 64 792 22T616-20q-140 0-219 90h-4q3-28 6-117t4-125v-320H168v1598h235V422z"/><glyph unicode="¶" glyph-name="paragraph" horiz-adv-x="1341" d="M1143-260h-137v1663H815V-260H678v819q-62-18-146-18-216 0-317 125t-102 376q0 260 109 387t341 127h580V-260z"/><glyph unicode="·" glyph-name="middot" horiz-adv-x="563" d="M133 723q0 73 38 112t110 39q73 0 111-40t38-111q0-71-38-112t-111-42q-72 0-110 41t-38 113z"/><glyph unicode="¸" glyph-name="cedilla" horiz-adv-x="442" d="M426-270q0-222-305-222-66 0-121 15v137q54-14 123-14 54 0 85 16t32 62q0 85-179 110L145 0h152l-41-88q80-21 125-68t45-114z"/><glyph unicode="¹" glyph-name="onesuperior" horiz-adv-x="743" d="M532 586H346v512l3 103 5 91q-17-18-40-40t-142-111l-88 112 281 209h167V586z"/><glyph unicode="º" glyph-name="ordmasculine" horiz-adv-x="780" d="M719 1124q0-164-87-259t-245-95q-150 0-238 95t-88 259q0 169 88 262t242 93q152 0 240-94t88-261zm-496 0q0-111 39-166t127-55q88 0 127 55t39 166q0 113-39 167t-127 55q-88 0-127-54t-39-168z"/><glyph unicode="»" glyph-name="guillemotright" horiz-adv-x="1139" d="M1057 535L698 104l-168 97 283 348-283 350 168 94 359-432v-26zm-451 0L248 104 80 201l282 348L80 899l168 94 358-432v-26z"/><glyph unicode="¼" glyph-name="onequarter" horiz-adv-x="1700" d="M1333 1462L477 0H285l858 1462h190zM764 586H578v512l3 103 5 91q-17-18-40-40t-142-111l-88 112 281 209h167V586zm821-409h-125V1h-192v176H876v127l396 579h188V320h125V177zm-317 143v178q0 97 6 197-52-104-88-158l-148-217h230z"/><glyph unicode="½" glyph-name="onehalf" horiz-adv-x="1700" d="M1298 1462L442 0H250l858 1462h190zM750 586H564v512l3 103 5 91q-17-18-40-40t-142-111l-88 112 281 209h167V586zM1608 1H981v135l230 225q117 112 149 165t33 112q0 52-32 79t-83 27q-93 0-201-88l-94 121q139 119 309 119 136 0 211-66t76-180q0-83-46-158t-183-203l-139-129h397V1z"/><glyph unicode="¾" glyph-name="threequarters" horiz-adv-x="1700" d="M1415 1462L559 0H367l858 1462h190zm225-1285h-125V1h-192v176H931v127l396 579h188V320h125V177zm-317 143v178q0 97 6 197-52-104-88-158l-148-217h230zm-668 931q0-75-40-122t-120-87q94-21 141-76t48-132q0-127-93-196t-266-69q-148 0-270 62v157q145-79 270-79 179 0 179 135 0 125-199 125H190v133h105q184 0 184 129 0 52-34 80t-91 28q-57 0-105-20t-106-57l-84 114q61 46 134 75t171 30q134 0 212-61t79-169z"/><glyph unicode="¿" glyph-name="questiondown" horiz-adv-x="928" d="M651 645v-63q0-106-41-181T467 246Q343 148 312 99T281-25q0-78 54-125t161-47q90 0 174 27t166 66l82-179Q698-393 494-393q-207 0-323 95T55-33q0 73 21 130t64 109 157 142q94 76 125 124t31 128v45h198zm41 320q0-74-37-113t-112-39q-72 0-110 39t-38 113q0 69 38 111t110 42q72 0 110-40t39-113z"/><glyph unicode="À" glyph-name="Agrave" horiz-adv-x="1354" d="M1100 0L954 406H395L252 0H0l547 1468h260L1354 0h-254zM891 612l-137 398q-15 40-41 126t-37 126q-27-123-79-269L465 612h426zm-229 967q-69 52-174 150t-154 157v21h273q38-70 103-161t110-142v-25H662z"/><glyph unicode="Á" glyph-name="Aacute" horiz-adv-x="1354" d="M1100 0L954 406H395L252 0H0l547 1468h260L1354 0h-254zM891 612l-137 398q-15 40-41 126t-37 126q-27-123-79-269L465 612h426zm-359 967v25q57 70 117 156t96 147h273v-21q-52-61-155-157t-175-150H532z"/><glyph unicode="Â" glyph-name="Acircumflex" horiz-adv-x="1354" d="M1100 0L954 406H395L252 0H0l547 1468h260L1354 0h-254zM891 612l-137 398q-15 40-41 126t-37 126q-27-123-79-269L465 612h426zm6 967q-123 73-228 180-103-103-225-180H286v25q191 198 254 303h260q63-110 256-303v-25H897z"/><glyph unicode="Ã" glyph-name="Atilde" horiz-adv-x="1354" d="M1100 0L954 406H395L252 0H0l547 1468h260L1354 0h-254zM891 612l-137 398q-15 40-41 126t-37 126q-27-123-79-269L465 612h426zm-70 967q-42 0-82 17t-80 39-76 39-71 18q-81 0-109-115H281q12 139 77 212t168 73q43 0 84-17t80-39 75-39 71-18q79 0 106 115h125q-12-134-77-209t-169-76z"/><glyph unicode="Ä" glyph-name="Adieresis" horiz-adv-x="1354" d="M1100 0L954 406H395L252 0H0l547 1468h260L1354 0h-254zM891 612l-137 398q-15 40-41 126t-37 126q-27-123-79-269L465 612h426zM363 1737q0 62 33 89t82 28q53 0 84-31t32-86q0-53-32-85t-84-32q-48 0-81 29t-34 88zm393 0q0 62 33 89t82 28q53 0 85-31t32-86q0-54-33-85t-84-32q-48 0-81 29t-34 88z"/><glyph unicode="Å" glyph-name="Aring" horiz-adv-x="1354" d="M1100 0L954 406H395L252 0H0l547 1468h260L1354 0h-254zM891 612l-137 398q-15 40-41 126t-37 126q-27-123-79-269L465 612h426zm22 965q0-102-65-165t-174-64q-108 0-172 62t-64 165q0 101 63 163t173 63q104 0 171-62t68-162zm-133-2q0 50-30 78t-76 29q-47 0-77-28t-30-79q0-106 107-106 46 0 76 27t30 79z"/><glyph unicode="Æ" glyph-name="AE" horiz-adv-x="1868" d="M1747 0H936v406H432L244 0H-2l678 1462h1071v-202h-571V862h532V662h-532V203h571V0zM522 612h414v641H813L522 612z"/><glyph unicode="Ç" glyph-name="Ccedilla" horiz-adv-x="1298" d="M815 1278q-206 0-324-146T373 729q0-269 113-407t329-138q93 0 180 18t181 48V45q-172-65-390-65-321 0-493 194T121 731q0 228 83 399t242 262 371 91q224 0 414-94l-86-199q-74 35-156 61t-174 27zM952-270q0-222-305-222-66 0-121 15v137q54-14 123-14 54 0 85 16t32 62q0 85-179 110L671 0h152l-41-88q80-21 125-68t45-114z"/><glyph unicode="È" glyph-name="Egrave" horiz-adv-x="1143" d="M1020 0H193v1462h827v-202H432V862h551V662H432V203h588V0zM617 1579q-69 52-174 150t-154 157v21h273q38-70 103-161t110-142v-25H617z"/><glyph unicode="É" glyph-name="Eacute" horiz-adv-x="1143" d="M1020 0H193v1462h827v-202H432V862h551V662H432V203h588V0zM440 1579v25q57 70 117 156t96 147h273v-21q-52-61-155-157t-175-150H440z"/><glyph unicode="Ê" glyph-name="Ecircumflex" horiz-adv-x="1143" d="M1020 0H193v1462h827v-202H432V862h551V662H432V203h588V0zM831 1579q-123 73-228 180-103-103-225-180H220v25q191 198 254 303h260q63-110 256-303v-25H831z"/><glyph unicode="Ë" glyph-name="Edieresis" horiz-adv-x="1143" d="M1020 0H193v1462h827v-202H432V862h551V662H432V203h588V0zM297 1737q0 62 33 89t82 28q53 0 84-31t32-86q0-53-32-85t-84-32q-48 0-81 29t-34 88zm393 0q0 62 33 89t82 28q53 0 85-31t32-86q0-54-33-85t-84-32q-48 0-81 29t-34 88z"/><glyph unicode="Ì" glyph-name="Igrave" horiz-adv-x="625" d="M193 0v1462h239V0H193zm129 1579q-69 52-174 150T-6 1886v21h273q38-70 103-161t110-142v-25H322z"/><glyph unicode="Í" glyph-name="Iacute" horiz-adv-x="625" d="M193 0v1462h239V0H193zm-14 1579v25q57 70 117 156t96 147h273v-21q-52-61-155-157t-175-150H179z"/><glyph unicode="Î" glyph-name="Icircumflex" horiz-adv-x="625" d="M193 0v1462h239V0H193zm343 1579q-123 73-228 180-103-103-225-180H-75v25q191 198 254 303h260q63-110 256-303v-25H536z"/><glyph unicode="Ï" glyph-name="Idieresis" horiz-adv-x="625" d="M193 0v1462h239V0H193zM1 1737q0 62 33 89t82 28q53 0 84-31t32-86q0-53-32-85t-84-32q-48 0-81 29t-34 88zm393 0q0 62 33 89t82 28q53 0 85-31t32-86q0-54-33-85t-84-32q-48 0-81 29t-34 88z"/><glyph unicode="Ð" glyph-name="Eth" horiz-adv-x="1497" d="M1374 745q0-360-201-552T594 0H193v623H47v200h146v639h446q347 0 541-188t194-529zm-252-8q0 260-124 392t-369 133H432V823h307V623H432V201h160q530 0 530 536z"/><glyph unicode="Ñ" glyph-name="Ntilde" horiz-adv-x="1604" d="M1411 0h-293L399 1165h-8l5-65q14-186 14-340V0H193v1462h290l717-1159h6q-2 23-8 167t-6 226v766h219V0zM954 1579q-42 0-82 17t-80 39-76 39-71 18q-81 0-109-115H414q12 139 77 212t168 73q43 0 84-17t80-39 75-39 71-18q79 0 106 115h125q-12-134-77-209t-169-76z"/><glyph unicode="Ò" glyph-name="Ograve" horiz-adv-x="1612" d="M1491 733q0-357-178-555T807-20q-331 0-508 196T121 735q0 362 178 556t510 194q326 0 504-197t178-555zm-1116 0q0-270 109-409t323-140q213 0 321 138t109 411q0 269-107 408t-321 139q-215 0-324-139T375 733zm434 846q-69 52-174 150t-154 157v21h273q38-70 103-161t110-142v-25H809z"/><glyph unicode="Ó" glyph-name="Oacute" horiz-adv-x="1612" d="M1491 733q0-357-178-555T807-20q-331 0-508 196T121 735q0 362 178 556t510 194q326 0 504-197t178-555zm-1116 0q0-270 109-409t323-140q213 0 321 138t109 411q0 269-107 408t-321 139q-215 0-324-139T375 733zm282 846v25q57 70 117 156t96 147h273v-21q-52-61-155-157t-175-150H657z"/><glyph unicode="Ô" glyph-name="Ocircumflex" horiz-adv-x="1612" d="M1491 733q0-357-178-555T807-20q-331 0-508 196T121 735q0 362 178 556t510 194q326 0 504-197t178-555zm-1116 0q0-270 109-409t323-140q213 0 321 138t109 411q0 269-107 408t-321 139q-215 0-324-139T375 733zm649 846q-123 73-228 180-103-103-225-180H413v25q191 198 254 303h260q63-110 256-303v-25h-159z"/><glyph unicode="Õ" glyph-name="Otilde" horiz-adv-x="1612" d="M1491 733q0-357-178-555T807-20q-331 0-508 196T121 735q0 362 178 556t510 194q326 0 504-197t178-555zm-1116 0q0-270 109-409t323-140q213 0 321 138t109 411q0 269-107 408t-321 139q-215 0-324-139T375 733zm575 846q-42 0-82 17t-80 39-76 39-71 18q-81 0-109-115H410q12 139 77 212t168 73q43 0 84-17t80-39 75-39 71-18q79 0 106 115h125q-12-134-77-209t-169-76z"/><glyph unicode="Ö" glyph-name="Odieresis" horiz-adv-x="1612" d="M1491 733q0-357-178-555T807-20q-331 0-508 196T121 735q0 362 178 556t510 194q326 0 504-197t178-555zm-1116 0q0-270 109-409t323-140q213 0 321 138t109 411q0 269-107 408t-321 139q-215 0-324-139T375 733zm121 1004q0 62 33 89t82 28q53 0 84-31t32-86q0-53-32-85t-84-32q-48 0-81 29t-34 88zm393 0q0 62 33 89t82 28q53 0 85-31t32-86q0-54-33-85t-84-32q-48 0-81 29t-34 88z"/><glyph unicode="×" glyph-name="multiply" horiz-adv-x="1169" d="M457 723l-326 326 125 127 328-326 329 326 125-123-329-330 325-328-123-125-329 326-324-326-125 125 324 328z"/><glyph unicode="Ø" glyph-name="Oslash" horiz-adv-x="1612" d="M1491 733q0-357-178-555T807-20q-213 0-361 81L352-76 211 18l98 144Q121 358 121 735q0 362 178 556t510 194q199 0 354-82l90 129 142-92-99-140q195-199 195-567zm-254 0q0 225-80 361L571 244q97-60 236-60 213 0 321 138t109 411zm-862 0q0-231 78-362l587 850q-92 59-231 59-215 0-324-139T375 733z"/><glyph unicode="Ù" glyph-name="Ugrave" horiz-adv-x="1520" d="M1339 1462V516q0-162-69-283T1069 46 754-20q-272 0-423 144T180 520v942h240V537q0-181 84-267t258-86q338 0 338 355v923h239zm-594 117q-69 52-174 150t-154 157v21h273q38-70 103-161t110-142v-25H745z"/><glyph unicode="Ú" glyph-name="Uacute" horiz-adv-x="1520" d="M1339 1462V516q0-162-69-283T1069 46 754-20q-272 0-423 144T180 520v942h240V537q0-181 84-267t258-86q338 0 338 355v923h239zm-739 117v25q57 70 117 156t96 147h273v-21q-52-61-155-157t-175-150H600z"/><glyph unicode="Û" glyph-name="Ucircumflex" horiz-adv-x="1520" d="M1339 1462V516q0-162-69-283T1069 46 754-20q-272 0-423 144T180 520v942h240V537q0-181 84-267t258-86q338 0 338 355v923h239zm-362 117q-123 73-228 180-103-103-225-180H366v25q191 198 254 303h260q63-110 256-303v-25H977z"/><glyph unicode="Ü" glyph-name="Udieresis" horiz-adv-x="1520" d="M1339 1462V516q0-162-69-283T1069 46 754-20q-272 0-423 144T180 520v942h240V537q0-181 84-267t258-86q338 0 338 355v923h239zm-894 275q0 62 33 89t82 28q53 0 84-31t32-86q0-53-32-85t-84-32q-48 0-81 29t-34 88zm393 0q0 62 33 89t82 28q53 0 85-31t32-86q0-54-33-85t-84-32q-48 0-81 29t-34 88z"/><glyph unicode="Ý" glyph-name="Yacute" horiz-adv-x="1212" d="M606 795l346 667h260L725 567V0H485v559L0 1462h260l346-667zm-156 784v25q57 70 117 156t96 147h273v-21q-52-61-155-157t-175-150H450z"/><glyph unicode="Þ" glyph-name="Thorn" horiz-adv-x="1268" d="M1169 776q0-227-146-349T600 305H432V0H193v1462h239v-243h197q268 0 404-112t136-331zM432 504h133q187 0 273 63t86 203q0 127-78 188t-250 62H432V504z"/><glyph unicode="ß" glyph-name="germandbls" horiz-adv-x="1364" d="M1149 1253q0-74-38-140t-105-118q-90-69-117-98t-27-57q0-30 22-55t80-64l95-64q92-62 135-109t66-104 22-127q0-165-107-251T864-20q-190 0-299 65v199q58-37 139-61t148-25q192 0 192 151 0 61-34 105T854 532q-119 73-171 135t-52 146q0 63 34 115t105 106q75 55 107 97t32 94q0 72-67 112t-178 41q-127 0-194-54t-67-159V0H168v1169q0 193 128 295t368 103q225 0 355-84t130-230z"/><glyph unicode="à" glyph-name="agrave" horiz-adv-x="1188" d="M860 0l-47 154h-8Q725 53 644 17T436-20q-163 0-254 88T90 317q0 171 127 258t387 95l191 6v59q0 106-49 158t-154 53q-85 0-163-25t-150-59l-76 168q90 47 197 71t202 25q211 0 318-92t108-289V0H860zM510 160q128 0 205 71t78 201v96l-142-6q-166-6-241-55t-76-152q0-74 44-114t132-41zm333 1081q-69 52-174 150t-154 157v21h273q38-70 103-161t110-142v-25H843z"/><glyph unicode="á" glyph-name="aacute" horiz-adv-x="1188" d="M860 0l-47 154h-8Q725 53 644 17T436-20q-163 0-254 88T90 317q0 171 127 258t387 95l191 6v59q0 106-49 158t-154 53q-85 0-163-25t-150-59l-76 168q90 47 197 71t202 25q211 0 318-92t108-289V0H860zM510 160q128 0 205 71t78 201v96l-142-6q-166-6-241-55t-76-152q0-74 44-114t132-41zm-72 1081v25q57 70 117 156t96 147h273v-21q-52-61-155-157t-175-150H438z"/><glyph unicode="â" glyph-name="acircumflex" horiz-adv-x="1188" d="M860 0l-47 154h-8Q725 53 644 17T436-20q-163 0-254 88T90 317q0 171 127 258t387 95l191 6v59q0 106-49 158t-154 53q-85 0-163-25t-150-59l-76 168q90 47 197 71t202 25q211 0 318-92t108-289V0H860zM510 160q128 0 205 71t78 201v96l-142-6q-166-6-241-55t-76-152q0-74 44-114t132-41zm560 1081q-123 73-228 180-103-103-225-180H459v25q191 198 254 303h260q63-110 256-303v-25h-159z"/><glyph unicode="ã" glyph-name="atilde" horiz-adv-x="1188" d="M860 0l-47 154h-8Q725 53 644 17T436-20q-163 0-254 88T90 317q0 171 127 258t387 95l191 6v59q0 106-49 158t-154 53q-85 0-163-25t-150-59l-76 168q90 47 197 71t202 25q211 0 318-92t108-289V0H860zM510 160q128 0 205 71t78 201v96l-142-6q-166-6-241-55t-76-152q0-74 44-114t132-41zm494 1081q-42 0-82 17t-80 39-76 39-71 18q-81 0-109-115H464q12 139 77 212t168 73q43 0 84-17t80-39 75-39 71-18q79 0 106 115h125q-12-134-77-209t-169-76z"/><glyph unicode="ä" glyph-name="adieresis" horiz-adv-x="1188" d="M860 0l-47 154h-8Q725 53 644 17T436-20q-163 0-254 88T90 317q0 171 127 258t387 95l191 6v59q0 106-49 158t-154 53q-85 0-163-25t-150-59l-76 168q90 47 197 71t202 25q211 0 318-92t108-289V0H860zM510 160q128 0 205 71t78 201v96l-142-6q-166-6-241-55t-76-152q0-74 44-114t132-41zm28 1239q0 62 33 89t82 28q53 0 84-31t32-86q0-53-32-85t-84-32q-48 0-81 29t-34 88zm393 0q0 62 33 89t82 28q53 0 85-31t32-86q0-54-33-85t-84-32q-48 0-81 29t-34 88z"/><glyph unicode="å" glyph-name="aring" horiz-adv-x="1188" d="M860 0l-47 154h-8Q725 53 644 17T436-20q-163 0-254 88T90 317q0 171 127 258t387 95l191 6v59q0 106-49 158t-154 53q-85 0-163-25t-150-59l-76 168q90 47 197 71t202 25q211 0 318-92t108-289V0H860zM510 160q128 0 205 71t78 201v96l-142-6q-166-6-241-55t-76-152q0-74 44-114t132-41zm331 1308q0-102-65-165t-174-64q-108 0-172 62t-64 165q0 101 63 163t173 63q104 0 171-62t68-162zm-133-2q0 50-30 78t-76 29q-47 0-77-28t-30-79q0-106 107-106 46 0 76 27t30 79z"/><glyph unicode="æ" glyph-name="ae" horiz-adv-x="1817" d="M90 317q0 172 121 258t371 95l188 6v76q0 194-201 194-141 0-307-82l-74 166q88 47 192 71t204 25q241 0 340-155 120 155 346 155 206 0 328-134t122-363V502h-712q10-336 301-336 184 0 356 80V55q-86-41-171-58t-196-17q-140 0-248 54T874 199Q780 74 684 27T442-20q-165 0-258 90T90 317zm244-2q0-155 166-155 124 0 196 72t72 200v96l-135-6q-155-6-227-54t-72-153zm932 633q-112 0-177-69t-75-209h473q0 130-58 204t-163 74z"/><glyph unicode="ç" glyph-name="ccedilla" horiz-adv-x="1014" d="M614-20q-251 0-381 146T102 547q0 279 136 429t395 150q175 0 315-65l-71-189q-149 58-246 58-287 0-287-381 0-186 71-279t210-94q157 0 297 78V49Q859 12 788-4T614-20zm168-250q0-222-305-222-66 0-121 15v137q54-14 123-14 54 0 85 16t32 62q0 85-179 110L501 0h152l-41-88q80-21 125-68t45-114z"/><glyph unicode="è" glyph-name="egrave" horiz-adv-x="1180" d="M651-20q-258 0-403 150T102 545q0 271 135 426t371 155q219 0 346-133t127-366V500H344q5-161 87-247t231-87q98 0 182 18t182 62V55Q940 14 852-3T651-20zm-43 968q-112 0-179-71t-81-207h502q-2 137-66 207t-176 71zm257 293q-69 52-174 150t-154 157v21h273q38-70 103-161t110-142v-25H865z"/><glyph unicode="é" glyph-name="eacute" horiz-adv-x="1180" d="M651-20q-258 0-403 150T102 545q0 271 135 426t371 155q219 0 346-133t127-366V500H344q5-161 87-247t231-87q98 0 182 18t182 62V55Q940 14 852-3T651-20zm-43 968q-112 0-179-71t-81-207h502q-2 137-66 207t-176 71zm-150 293v25q57 70 117 156t96 147h273v-21q-52-61-155-157t-175-150H458z"/><glyph unicode="ê" glyph-name="ecircumflex" horiz-adv-x="1180" d="M651-20q-258 0-403 150T102 545q0 271 135 426t371 155q219 0 346-133t127-366V500H344q5-161 87-247t231-87q98 0 182 18t182 62V55Q940 14 852-3T651-20zm-43 968q-112 0-179-71t-81-207h502q-2 137-66 207t-176 71zm230 293q-123 73-228 180-103-103-225-180H227v25q191 198 254 303h260q63-110 256-303v-25H838z"/><glyph unicode="ë" glyph-name="edieresis" horiz-adv-x="1180" d="M651-20q-258 0-403 150T102 545q0 271 135 426t371 155q219 0 346-133t127-366V500H344q5-161 87-247t231-87q98 0 182 18t182 62V55Q940 14 852-3T651-20zm-43 968q-112 0-179-71t-81-207h502q-2 137-66 207t-176 71zm-301 451q0 62 33 89t82 28q53 0 84-31t32-86q0-53-32-85t-84-32q-48 0-81 29t-34 88zm393 0q0 62 33 89t82 28q53 0 85-31t32-86q0-54-33-85t-84-32q-48 0-81 29t-34 88z"/><glyph unicode="ì" glyph-name="igrave" horiz-adv-x="571" d="M403 0H168v1106h235V0zM259 1241q-69 52-174 150t-154 157v21h273q38-70 103-161t110-142v-25H259z"/><glyph unicode="í" glyph-name="iacute" horiz-adv-x="571" d="M403 0H168v1106h235V0zM156 1241v25q57 70 117 156t96 147h273v-21q-52-61-155-157t-175-150H156z"/><glyph unicode="î" glyph-name="icircumflex" horiz-adv-x="571" d="M403 0H168v1106h235V0zm108 1241q-123 73-228 180-103-103-225-180h-158v25q191 198 254 303h260q63-110 256-303v-25H511z"/><glyph unicode="ï" glyph-name="idieresis" horiz-adv-x="571" d="M403 0H168v1106h235V0zM-25 1399q0 62 33 89t82 28q53 0 84-31t32-86q0-53-32-85t-84-32q-48 0-81 29t-34 88zm393 0q0 62 33 89t82 28q53 0 85-31t32-86q0-54-33-85t-84-32q-48 0-81 29t-34 88z"/><glyph unicode="ð" glyph-name="eth" horiz-adv-x="1243" d="M1149 567q0-279-137-433T623-20q-235 0-378 136T102 481q0 231 131 365t351 135q214 0 301-111l8 4q-62 189-227 345l-250-150-88 133 204 119q-86 59-167 102l84 146q140-63 258-144l231 138 88-129-188-113q152-140 231-330t80-424zm-240-45q0 127-75 202t-207 75q-151 0-218-82t-67-240q0-153 74-234t211-81q148 0 215 91t67 269z"/><glyph unicode="ñ" glyph-name="ntilde" horiz-adv-x="1300" d="M1141 0H905v680q0 128-51 191t-164 63q-149 0-218-88t-69-295V0H168v1106h184l33-145h12q50 79 142 122t204 43q398 0 398-405V0zM809 1241q-42 0-82 17t-80 39-76 39-71 18q-81 0-109-115H269q12 139 77 212t168 73q43 0 84-17t80-39 75-39 71-18q79 0 106 115h125q-12-134-77-209t-169-76z"/><glyph unicode="ò" glyph-name="ograve" horiz-adv-x="1251" d="M1149 555q0-271-139-423T623-20q-155 0-274 70T166 251t-64 304q0 269 138 420t389 151q240 0 380-154t140-417zm-805 0q0-383 283-383 280 0 280 383 0 379-282 379-148 0-214-98t-67-281zm533 686q-69 52-174 150t-154 157v21h273q38-70 103-161t110-142v-25H877z"/><glyph unicode="ó" glyph-name="oacute" horiz-adv-x="1251" d="M1149 555q0-271-139-423T623-20q-155 0-274 70T166 251t-64 304q0 269 138 420t389 151q240 0 380-154t140-417zm-805 0q0-383 283-383 280 0 280 383 0 379-282 379-148 0-214-98t-67-281zm129 686v25q57 70 117 156t96 147h273v-21q-52-61-155-157t-175-150H473z"/><glyph unicode="ô" glyph-name="ocircumflex" horiz-adv-x="1251" d="M1149 555q0-271-139-423T623-20q-155 0-274 70T166 251t-64 304q0 269 138 420t389 151q240 0 380-154t140-417zm-805 0q0-383 283-383 280 0 280 383 0 379-282 379-148 0-214-98t-67-281zm506 686q-123 73-228 180-103-103-225-180H239v25q191 198 254 303h260q63-110 256-303v-25H850z"/><glyph unicode="õ" glyph-name="otilde" horiz-adv-x="1251" d="M1149 555q0-271-139-423T623-20q-155 0-274 70T166 251t-64 304q0 269 138 420t389 151q240 0 380-154t140-417zm-805 0q0-383 283-383 280 0 280 383 0 379-282 379-148 0-214-98t-67-281zm687 686q-42 0-82 17t-80 39-76 39-71 18q-81 0-109-115H491q12 139 77 212t168 73q43 0 84-17t80-39 75-39 71-18q79 0 106 115h125q-12-134-77-209t-169-76z"/><glyph unicode="ö" glyph-name="odieresis" horiz-adv-x="1251" d="M1149 555q0-271-139-423T623-20q-155 0-274 70T166 251t-64 304q0 269 138 420t389 151q240 0 380-154t140-417zm-805 0q0-383 283-383 280 0 280 383 0 379-282 379-148 0-214-98t-67-281zm-33 844q0 62 33 89t82 28q53 0 84-31t32-86q0-53-32-85t-84-32q-48 0-81 29t-34 88zm393 0q0 62 33 89t82 28q53 0 85-31t32-86q0-54-33-85t-84-32q-48 0-81 29t-34 88z"/><glyph unicode="÷" glyph-name="divide" horiz-adv-x="1169" d="M96 633v178h977V633H96zm361-260q0 64 31 99t96 36q61 0 93-36t32-99q0-63-34-100t-91-37q-60 0-93 35t-34 102zm0 698q0 64 31 99t96 36q61 0 93-36t32-99q0-63-34-100t-91-37q-60 0-93 35t-34 102z"/><glyph unicode="ø" glyph-name="oslash" horiz-adv-x="1251" d="M1149 555q0-271-139-423T623-20q-144 0-250 57L297-72 162 18l82 117Q102 290 102 555q0 269 138 420t389 151q144 0 258-63l69 100 136-92-78-108q135-152 135-408zm-805 0q0-135 37-219l391 559q-60 39-147 39-148 0-214-98t-67-281zm563 0q0 121-33 203L487 205q54-33 140-33 280 0 280 383z"/><glyph unicode="ù" glyph-name="ugrave" horiz-adv-x="1300" d="M948 0l-33 145h-12Q854 68 764 24T557-20Q356-20 257 80t-99 303v723h237V424q0-127 52-190t163-64q148 0 217 88t70 297v551h236V0H948zm-75 1241q-69 52-174 150t-154 157v21h273q38-70 103-161t110-142v-25H873z"/><glyph unicode="ú" glyph-name="uacute" horiz-adv-x="1300" d="M948 0l-33 145h-12Q854 68 764 24T557-20Q356-20 257 80t-99 303v723h237V424q0-127 52-190t163-64q148 0 217 88t70 297v551h236V0H948zM501 1241v25q57 70 117 156t96 147h273v-21q-52-61-155-157t-175-150H501z"/><glyph unicode="û" glyph-name="ucircumflex" horiz-adv-x="1300" d="M948 0l-33 145h-12Q854 68 764 24T557-20Q356-20 257 80t-99 303v723h237V424q0-127 52-190t163-64q148 0 217 88t70 297v551h236V0H948zm-77 1241q-123 73-228 180-103-103-225-180H260v25q191 198 254 303h260q63-110 256-303v-25H871z"/><glyph unicode="ü" glyph-name="udieresis" horiz-adv-x="1300" d="M948 0l-33 145h-12Q854 68 764 24T557-20Q356-20 257 80t-99 303v723h237V424q0-127 52-190t163-64q148 0 217 88t70 297v551h236V0H948zM332 1399q0 62 33 89t82 28q53 0 84-31t32-86q0-53-32-85t-84-32q-48 0-81 29t-34 88zm393 0q0 62 33 89t82 28q53 0 85-31t32-86q0-54-33-85t-84-32q-48 0-81 29t-34 88z"/><glyph unicode="ý" glyph-name="yacute" horiz-adv-x="1098" d="M0 1106h256l225-627q51-134 68-252h8q9 55 33 133t254 746h254L625-147Q496-492 195-492q-78 0-152 17v186q53-12 121-12 170 0 239 197L444 0 0 1106zm401 135v25q57 70 117 156t96 147h273v-21q-52-61-155-157t-175-150H401z"/><glyph unicode="þ" glyph-name="thorn" horiz-adv-x="1276" d="M403 961q61 86 142 125t188 40q206 0 322-151t116-420q0-272-116-423T733-20q-219 0-330 149h-14l8-72 6-92v-457H168v2048h235v-430l-7-138-3-27h10zm271-27q-142 0-206-82t-65-260v-37q0-202 64-292t209-91q254 0 254 385 0 190-61 283t-195 94z"/><glyph unicode="ÿ" glyph-name="ydieresis" horiz-adv-x="1098" d="M0 1106h256l225-627q51-134 68-252h8q9 55 33 133t254 746h254L625-147Q496-492 195-492q-78 0-152 17v186q53-12 121-12 170 0 239 197L444 0 0 1106zm495 293q0 62 33 89t82 28q53 0 84-31t32-86q0-53-32-85t-84-32q-48 0-81 29t-34 88zm393 0q0 62 33 89t82 28q53 0 85-31t32-86q0-54-33-85t-84-32q-48 0-81 29t-34 88z"/><glyph unicode="–" glyph-name="endash" horiz-adv-x="1024" d="M82 455v190h860V455H82z"/><glyph unicode="—" glyph-name="emdash" horiz-adv-x="2048" d="M82 455v190h1884V455H82z"/><glyph unicode="‘" glyph-name="quoteleft" horiz-adv-x="395" d="M37 961l-12 22q20 83 71 224t105 255h170q-64-256-101-501H37z"/><glyph unicode="’" glyph-name="quoteright" horiz-adv-x="395" d="M356 1462l15-22q-53-209-176-479H25q69 289 100 501h231z"/><glyph unicode="‚" glyph-name="quotesinglbase" horiz-adv-x="549" d="M412 215Q364 29 236-264H63Q132 6 166 238h231l15-23z"/><glyph unicode="“" glyph-name="quotedblleft" horiz-adv-x="813" d="M440 983q53 203 178 479h170q-69-296-100-501H455l-15 22zm-415 0q20 83 71 224t105 255h170q-64-256-101-501H37l-12 22z"/><glyph unicode="”" glyph-name="quotedblright" horiz-adv-x="813" d="M371 1440q-53-209-176-479H25q69 289 100 501h231l15-22zm417 0q-53-209-176-479H440q69 271 103 501h231l14-22z"/><glyph unicode="„" glyph-name="quotedblbase" horiz-adv-x="944" d="M391 215Q336 1 215-264H43Q109-4 145 238h232l14-23zm418 0Q761 29 633-264H461Q527-4 563 238h232l14-23z"/><glyph unicode="•" glyph-name="bullet" horiz-adv-x="770" d="M131 748q0 138 66 210t188 72q121 0 187-72t67-210q0-135-67-209t-187-74q-120 0-187 72t-67 211z"/><glyph unicode="‹" glyph-name="guilsinglleft" horiz-adv-x="688" d="M82 561l356 432 168-94-282-350 282-348-168-97L82 535v26z"/><glyph unicode="›" glyph-name="guilsinglright" horiz-adv-x="688" d="M606 535L248 104 80 201l282 348L80 899l168 94 358-432v-26z"/></font>
</defs>
</svg>
