<svg xmlns="http://www.w3.org/2000/svg"><defs><font id="OpenSans" horiz-adv-x="1206"><font-face font-family="Open Sans" units-per-em="2048" panose-1="2 11 6 6 3 5 4 2 2 4" ascent="2189" descent="-600" alphabetic="0"/><glyph glyph-name="space" horiz-adv-x="532"/><glyph unicode="!" glyph-name="exclam" horiz-adv-x="547" d="M326 403H221l-51 1059h207L326 403zM152 106q0 136 120 136 58 0 89-35t32-101q0-64-32-99t-89-36q-52 0-86 31t-34 104z"/><glyph unicode="&quot;" glyph-name="quotedbl" horiz-adv-x="821" d="M319 1462l-40-528H174l-41 528h186zm369 0l-41-528H543l-41 528h186z"/><glyph unicode="#" glyph-name="numbersign" horiz-adv-x="1323" d="M981 899l-66-340h283V430H891L807 0H670l84 430H451L369 0H233l80 430H51v129h287l68 340H129v127h299l82 436h139l-82-436h305l84 436h134l-84-436h264V899H981zM475 559h303l66 340H541l-66-340z"/><glyph unicode="$" glyph-name="dollar" horiz-adv-x="1171" d="M1036 449q0-136-102-224T649 113v-232H520v223q-112 0-217 17t-172 49v156q83-37 191-60t198-24v440q-205 65-287 151t-83 222q0 131 101 215t269 102v182h129v-180q184-5 355-74l-52-131q-149 59-303 70V805q157-50 235-97t115-109 37-150zm-170-13q0 72-44 116t-173 89V252q217 30 217 184zm-547 621q0-76 45-122t156-87v387q-99-16-150-62t-51-116z"/><glyph unicode="%" glyph-name="percent" horiz-adv-x="1686" d="M242 1026q0-170 37-255t120-85q164 0 164 340 0 338-164 338-83 0-120-84t-37-254zm458 0q0-228-76-344T399 565q-140 0-217 119t-78 342q0 227 74 342t221 115q145 0 223-119t78-338zm422-586q0-171 37-255t121-85q84 0 124 83t40 257q0 171-40 253t-124 83q-84 0-121-82t-37-254zm459 0q0-227-76-343T1280-20q-142 0-218 119t-77 341q0 227 74 342t221 115q142 0 221-117t80-340zm-258 1022L512 0H365l811 1462h147z"/><glyph unicode="&amp;" glyph-name="ampersand" horiz-adv-x="1495" d="M414 1171q0-69 36-131t123-151q129 75 179 138t51 147q0 77-51 125t-138 49q-89 0-144-48t-56-129zM569 129q241 0 400 154L532 707q-111-68-157-112t-68-96-22-116q0-117 77-185t207-69zM113 379q0 130 69 230t250 202q-85 95-115 144t-49 102-18 110q0 150 98 234t273 84q162 0 255-83t93-233q0-107-68-197T676 788l407-391q56 62 89 145t57 183h168q-68-286-205-434L1491 0h-229l-185 178Q959 72 837 26T565-20Q350-20 232 86T113 379z"/><glyph unicode="'" glyph-name="quotesingle" horiz-adv-x="453" d="M319 1462l-40-528H174l-41 528h186z"/><glyph unicode="(" glyph-name="parenleft" horiz-adv-x="606" d="M82 561q0 265 77 496t224 405h162q-144-193-216-424t-73-475q0-240 74-469t213-418H383Q236-154 159 73T82 561z"/><glyph unicode=")" glyph-name="parenright" horiz-adv-x="606" d="M524 561q0-263-77-490T223-324H63Q202-136 276 93t74 470q0 244-72 475T61 1462h162q147-175 224-406t77-495z"/><glyph unicode="*" glyph-name="asterisk" horiz-adv-x="1130" d="M657 1556l-43-395 398 111 26-182-381-31 248-326-172-94-176 362-160-362-176 94 242 326-377 31 29 182 391-111-43 395h194z"/><glyph unicode="+" glyph-name="plus" horiz-adv-x="1171" d="M653 791h412V653H653V227H514v426H104v138h410v428h139V791z"/><glyph unicode="," glyph-name="comma" horiz-adv-x="502" d="M350 238l15-23q-26-100-75-232T188-264H63Q90-160 122-7t46 245h182z"/><glyph unicode="-" glyph-name="hyphen" horiz-adv-x="659" d="M84 473v152h491V473H84z"/><glyph unicode="." glyph-name="period" horiz-adv-x="545" d="M152 106q0 67 30 101t88 35q58 0 90-34t33-102q0-65-33-100t-90-35q-51 0-84 31t-34 104z"/><glyph unicode="/" glyph-name="slash" horiz-adv-x="752" d="M731 1462L186 0H20l545 1462h166z"/><glyph unicode="0" glyph-name="zero" horiz-adv-x="1171" d="M1069 733q0-379-119-566T584-20q-236 0-359 191T102 733q0 382 119 567t363 185q238 0 361-193t124-559zm-799 0q0-319 75-464t239-146q166 0 240 147t75 463q0 315-74 461t-241 147q-164 0-239-144t-75-464z"/><glyph unicode="1" glyph-name="one" horiz-adv-x="1171" d="M715 0H553v1042q0 130 8 246-21-21-47-44t-238-195l-88 114 387 299h140V0z"/><glyph unicode="2" glyph-name="two" horiz-adv-x="1171" d="M1061 0H100v143l385 387q176 178 232 254t84 148 28 155q0 117-71 185t-197 69q-91 0-172-30t-182-109l-88 113q202 168 440 168 206 0 323-105t117-284q0-139-78-275T629 475L309 162v-8h752V0z"/><glyph unicode="3" glyph-name="three" horiz-adv-x="1171" d="M1006 1118q0-140-78-229T705 770v-8q176-22 261-112t85-236q0-209-145-321T494-20Q378-20 282-3T94 59v158q95-47 202-71t204-25q379 0 379 297 0 266-418 266H317v143h146q171 0 271 75t100 210q0 107-73 168t-200 61q-96 0-181-26t-194-96l-84 112q90 71 207 111t248 41q213 0 331-97t118-268z"/><glyph unicode="4" glyph-name="four" horiz-adv-x="1171" d="M1130 336H913V0H754v336H43v145l694 989h176V487h217V336zM754 487v486q0 143 10 323h-8q-48-96-90-159L209 487h545z"/><glyph unicode="5" glyph-name="five" horiz-adv-x="1171" d="M557 893q231 0 363-114t133-314q0-227-144-356T510-20q-247 0-377 79v160q70-45 174-70t205-26q176 0 273 83t98 240q0 306-375 306-95 0-254-29l-86 55 55 684h727v-153H365l-37-439q115 23 229 23z"/><glyph unicode="6" glyph-name="six" horiz-adv-x="1171" d="M117 625q0 431 167 644t496 214q113 0 178-19v-143q-77 25-176 25-235 0-359-146T287 739h12q110 172 348 172 197 0 310-119t114-323q0-228-124-358T610-20q-227 0-360 170T117 625zm491-504q142 0 220 89t79 259q0 145-73 228t-218 83q-90 0-165-37T332 641t-45-135q0-103 40-192t113-141 168-52z"/><glyph unicode="7" glyph-name="seven" horiz-adv-x="1171" d="M285 0l606 1309H94v153h973v-133L469 0H285z"/><glyph unicode="8" glyph-name="eight" horiz-adv-x="1171" d="M584 1483q200 0 317-93t117-257q0-108-67-197T737 774q178-85 253-178t75-217q0-182-127-290T590-20Q356-20 230 82T104 373q0 251 306 391-138 78-198 168t-60 203q0 159 117 253t315 95zM268 369q0-120 83-187t235-67q149 0 232 70t83 192q0 97-78 172T551 696q-149-64-216-141t-67-186zm314 979q-125 0-196-60t-71-160q0-92 59-158t218-132q143 60 202 129t60 161q0 101-72 160t-200 60z"/><glyph unicode="9" glyph-name="nine" horiz-adv-x="1171" d="M1061 838q0-858-664-858-116 0-184 20v143q80-26 182-26 240 0 362 148t134 456h-12q-55-83-146-126t-205-44q-194 0-308 116T106 991q0 228 127 360t336 132q149 0 260-76t172-223 60-346zm-492 503q-143 0-221-92t-78-256q0-144 72-226t219-83q91 0 167 37t121 101 44 134q0 105-41 194t-114 140-169 51z"/><glyph unicode=":" glyph-name="colon" horiz-adv-x="545" d="M152 106q0 67 30 101t88 35q58 0 90-34t33-102q0-65-33-100t-90-35q-51 0-84 31t-34 104zm0 883q0 135 118 135 123 0 123-135 0-65-33-100t-90-35q-51 0-84 31t-34 104z"/><glyph unicode=";" glyph-name="semicolon" horiz-adv-x="545" d="M350 238l15-23q-26-100-75-232T188-264H63Q90-160 122-7t46 245h182zM147 989q0 135 119 135 123 0 123-135 0-65-33-100t-90-35q-58 0-88 35t-31 100z"/><glyph unicode="&lt;" glyph-name="less" horiz-adv-x="1171" d="M1065 242L104 664v98l961 479v-149L283 721l782-328V242z"/><glyph unicode="=" glyph-name="equal" horiz-adv-x="1171" d="M119 858v137h930V858H119zm0-409v137h930V449H119z"/><glyph unicode="&gt;" glyph-name="greater" horiz-adv-x="1171" d="M104 393l783 326-783 373v149l961-479v-98L104 242v151z"/><glyph unicode="?" glyph-name="question" horiz-adv-x="879" d="M289 403v54q0 117 36 192t134 160q136 115 171 173t36 140q0 102-65 157t-189 56q-79 0-154-18t-172-68l-59 135q189 99 395 99 191 0 297-94t106-265q0-73-19-128t-58-105-164-160q-101-86-133-143t-33-152v-33H289zm-49-297q0 136 120 136 58 0 89-35t32-101q0-64-32-99t-89-36q-52 0-86 31t-34 104z"/><glyph unicode="@" glyph-name="at" horiz-adv-x="1841" d="M1720 729q0-142-44-260t-124-183-184-65q-86 0-145 52t-70 133h-8q-40-87-114-136t-177-49q-150 0-234 102t-85 279q0 204 118 331t310 128q68 0 154-12t155-35l-25-470v-22q0-178 133-178 91 0 148 107t57 280q0 181-74 317t-210 209-314 74q-223 0-388-92T347 975t-87-397q0-305 161-469T885-55q210 0 436 86v-133q-192-84-436-84-363 0-563 199T121 571q0 260 107 463t305 314 454 112q215 0 382-90t259-257 92-384zM686 598q0-254 195-254 207 0 225 313l14 261q-72 20-157 20-130 0-203-90t-74-250z"/><glyph unicode="A" glyph-name="A" horiz-adv-x="1296" d="M1120 0L938 465H352L172 0H0l578 1468h143L1296 0h-176zM885 618l-170 453q-33 86-68 211-22-96-63-211L412 618h473z"/><glyph unicode="B" glyph-name="B" horiz-adv-x="1327" d="M201 1462h413q291 0 421-87t130-275q0-130-72-214T881 776v-10q333-57 333-350 0-196-132-306T711 0H201v1462zm170-626h280q180 0 259 56t79 191q0 123-88 177t-280 55H371V836zm0-144V145h305q177 0 266 68t90 215q0 136-91 200t-279 64H371z"/><glyph unicode="C" glyph-name="C" horiz-adv-x="1292" d="M827 1331q-241 0-380-160T307 731q0-287 134-443t384-157q153 0 349 55V37q-152-57-375-57-323 0-498 196T125 733q0 226 84 396t244 262 376 92q230 0 402-84l-72-146q-166 78-332 78z"/><glyph unicode="D" glyph-name="D" horiz-adv-x="1493" d="M1368 745q0-362-196-553T606 0H201v1462h448q341 0 530-189t189-528zm-180-6q0 286-143 431t-427 145H371V147h207q304 0 457 149t153 443z"/><glyph unicode="E" glyph-name="E" horiz-adv-x="1139" d="M1016 0H201v1462h815v-151H371V840h606V690H371V152h645V0z"/><glyph unicode="F" glyph-name="F" horiz-adv-x="1057" d="M371 0H201v1462h815v-151H371V776h606V625H371V0z"/><glyph unicode="G" glyph-name="G" horiz-adv-x="1491" d="M844 766h497V55q-116-37-236-56T827-20q-332 0-517 197T125 731q0 228 91 399t264 262 403 91q234 0 436-86l-66-150q-198 84-381 84-267 0-417-159T305 731q0-296 144-449t425-153q152 0 297 35v450H844v152z"/><glyph unicode="H" glyph-name="H" horiz-adv-x="1511" d="M1311 0h-170v688H371V0H201v1462h170V840h770v622h170V0z"/><glyph unicode="I" glyph-name="I" horiz-adv-x="571" d="M201 0v1462h170V0H201z"/><glyph unicode="J" glyph-name="J" horiz-adv-x="547" d="M-12-385q-94 0-148 27v145q71-20 148-20 99 0 150 60T190 0v1462h170V14q0-190-96-294T-12-385z"/><glyph unicode="K" glyph-name="K" horiz-adv-x="1257" d="M1257 0h-200L524 709 371 573V0H201v1462h170V737l663 725h201L647 827 1257 0z"/><glyph unicode="L" glyph-name="L" horiz-adv-x="1063" d="M201 0v1462h170V154h645V0H201z"/><glyph unicode="M" glyph-name="M" horiz-adv-x="1849" d="M848 0L352 1296h-8q14-154 14-366V0H201v1462h256L920 256h8l467 1206h254V0h-170v942q0 162 14 352h-8L985 0H848z"/><glyph unicode="N" glyph-name="N" horiz-adv-x="1544" d="M1343 0h-194L350 1227h-8q16-216 16-396V0H201v1462h192l797-1222h8q-2 27-9 173t-5 210v839h159V0z"/><glyph unicode="O" glyph-name="O" horiz-adv-x="1595" d="M1470 733q0-351-177-552T799-20q-323 0-498 197T125 735q0 357 176 553t500 197q315 0 492-200t177-552zm-1165 0q0-297 126-450t368-154q243 0 367 153t124 451q0 295-123 447t-366 153q-243 0-369-153T305 733z"/><glyph unicode="P" glyph-name="P" horiz-adv-x="1233" d="M1128 1036q0-222-151-341T543 575H371V0H201v1462h379q548 0 548-426zM371 721h153q226 0 327 73t101 234q0 145-95 216t-296 71H371V721z"/><glyph unicode="Q" glyph-name="Q" horiz-adv-x="1595" d="M1470 733q0-281-113-467T1038 14l348-362h-247L854-18l-55-2q-323 0-498 197T125 735q0 357 176 553t500 197q315 0 492-200t177-552zm-1165 0q0-297 126-450t368-154q243 0 367 153t124 451q0 295-123 447t-366 153q-243 0-369-153T305 733z"/><glyph unicode="R" glyph-name="R" horiz-adv-x="1266" d="M371 608V0H201v1462h401q269 0 397-103t129-310q0-290-294-392L1231 0h-201L676 608H371zm0 146h233q180 0 264 71t84 215q0 145-85 209t-275 64H371V754z"/><glyph unicode="S" glyph-name="S" horiz-adv-x="1124" d="M1026 389q0-193-140-301T506-20q-260 0-400 67v164q90-38 196-60t210-22q170 0 256 64t86 180q0 76-30 124t-102 90-218 93q-204 73-291 173t-88 261q0 169 127 269t336 100q218 0 401-80l-53-148q-181 76-352 76-135 0-211-58t-76-161q0-76 28-124t94-89 204-90q230-82 316-176t87-244z"/><glyph unicode="T" glyph-name="T" horiz-adv-x="1133" d="M651 0H481v1311H18v151h1096v-151H651V0z"/><glyph unicode="U" glyph-name="U" horiz-adv-x="1491" d="M1305 1462V516q0-250-151-393T739-20q-264 0-408 144T186 520v942h170V508q0-183 100-281t294-98q185 0 285 98t100 283v952h170z"/><glyph unicode="V" glyph-name="V" horiz-adv-x="1219" d="M1036 1462h183L692 0H524L0 1462h180l336-946q58-163 92-317 36 162 94 323l334 940z"/><glyph unicode="W" glyph-name="W" horiz-adv-x="1896" d="M1477 0h-168l-295 979q-21 65-47 164t-27 119q-22-132-70-289L584 0H416L27 1462h180l231-903q48-190 70-344 27 183 80 358l262 889h180l275-897q48-155 81-350 19 142 72 346l230 901h180L1477 0z"/><glyph unicode="X" glyph-name="X" horiz-adv-x="1182" d="M1174 0H981L588 643 188 0H8l486 764-453 698h188l363-579 366 579h181L686 770 1174 0z"/><glyph unicode="Y" glyph-name="Y" horiz-adv-x="1147" d="M573 731l390 731h184L659 567V0H487v559L0 1462h186l387-731z"/><glyph unicode="Z" glyph-name="Z" horiz-adv-x="1169" d="M1087 0H82v133l776 1176H106v153h959v-133L289 154h798V0z"/><glyph unicode="[" glyph-name="bracketleft" horiz-adv-x="674" d="M623-324H166v1786h457v-141H334V-182h289v-142z"/><glyph unicode="\" glyph-name="backslash" horiz-adv-x="752" d="M186 1462L733 0H567L23 1462h163z"/><glyph unicode="]" glyph-name="bracketright" horiz-adv-x="674" d="M51-182h289v1503H51v141h457V-324H51v142z"/><glyph unicode="^" glyph-name="asciicircum" horiz-adv-x="1110" d="M49 551l434 922h99l477-922H907l-372 745-334-745H49z"/><glyph unicode="_" glyph-name="underscore" horiz-adv-x="918" d="M922-315H-4v131h926v-131z"/><glyph unicode="`" glyph-name="grave" horiz-adv-x="1182" d="M786 1241H676q-65 52-154 148t-129 159v21h203q32-69 89-159t101-144v-25z"/><glyph unicode="a" glyph-name="a" horiz-adv-x="1139" d="M850 0l-33 156h-8Q727 53 646 17T442-20q-163 0-255 84T94 303q0 332 531 348l186 6v68q0 129-55 190t-178 62q-137 0-310-84l-51 127q81 44 177 69t194 25q196 0 290-87t95-279V0H850zM475 117q155 0 243 85t89 238v99l-166-7q-198-7-285-61t-88-170q0-90 54-137t153-47z"/><glyph unicode="b" glyph-name="b" horiz-adv-x="1255" d="M686 1114q216 0 335-147t120-418q0-270-120-419T686-20q-107 0-195 39T342 141h-12L295 0H176v1556h166v-378q0-127-8-228h8q116 164 344 164zm-24-139q-170 0-245-97t-75-329q0-231 77-330t247-100q153 0 228 111t75 321q0 214-75 319T662 975z"/><glyph unicode="c" glyph-name="c" horiz-adv-x="975" d="M614-20q-238 0-368 146T115 541q0 275 132 425t378 150q79 0 158-17t124-40l-51-141q-55 22-120 36t-115 15q-334 0-334-426 0-202 81-310t242-108q137 0 281 59V37Q781-20 614-20z"/><glyph unicode="d" glyph-name="d" horiz-adv-x="1255" d="M922 147h-9Q798-20 569-20q-215 0-334 147T115 545q0 271 120 421t334 150q223 0 342-162h13l-7 79-4 77v446h166V0H944l-22 147zm-332-28q170 0 246 92t77 299v35q0 233-77 332T588 977q-146 0-223-113t-78-321q0-210 77-317t226-107z"/><glyph unicode="e" glyph-name="e" horiz-adv-x="1149" d="M639-20q-243 0-383 148T115 539q0 265 130 421t351 156q206 0 326-135t120-358V518H287q5-193 97-293t261-100q177 0 350 74V51Q907 13 829-3T639-20zm-45 997q-132 0-210-86t-93-238h573q0 157-70 240t-200 84z"/><glyph unicode="f" glyph-name="f" horiz-adv-x="694" d="M670 967H391V0H225v967H29v75l196 60v61q0 404 353 404 87 0 204-35l-43-133q-96 31-164 31-94 0-139-62t-45-201v-71h279V967z"/><glyph unicode="g" glyph-name="g" horiz-adv-x="1122" d="M1073 1096V991l-203-24q28-35 50-91t22-128q0-161-110-257t-302-96q-49 0-92 8-106-56-106-141 0-45 37-66t127-22h194q178 0 273-75t96-218q0-182-146-277t-426-96q-215 0-331 80T39-186q0 100 64 173t180 99q-42 19-70 59t-29 93q0 60 32 105t101 87q-85 35-138 119t-54 192q0 180 108 277t306 98q86 0 155-20h379zM199-184q0-89 75-135t215-46q209 0 309 62t101 170q0 89-55 123T637 25H438q-113 0-176-54t-63-155zm90 929q0-115 65-174t181-59q243 0 243 236 0 247-246 247-117 0-180-63t-63-187z"/><glyph unicode="h" glyph-name="h" horiz-adv-x="1257" d="M926 0v709q0 134-61 200t-191 66q-173 0-252-94t-80-308V0H176v1556h166v-471q0-85-8-141h10q49 79 139 124t207 46q201 0 301-95t101-304V0H926z"/><glyph unicode="i" glyph-name="i" horiz-adv-x="518" d="M342 0H176v1096h166V0zM162 1393q0 57 28 83t70 27q40 0 69-27t29-83q0-56-29-83t-69-28q-42 0-70 27t-28 84z"/><glyph unicode="j" glyph-name="j" horiz-adv-x="518" d="M43-492q-95 0-154 25v135q69-20 136-20 78 0 114 42t37 130v1276h166V-168q0-324-299-324zm119 1885q0 57 28 83t70 27q40 0 69-27t29-83q0-56-29-83t-69-28q-42 0-70 27t-28 84z"/><glyph unicode="k" glyph-name="k" horiz-adv-x="1075" d="M340 561q43 61 131 160l354 375h197L578 629 1053 0H852L465 518 340 410V0H176v1556h164V731q0-55-8-170h8z"/><glyph unicode="l" glyph-name="l" horiz-adv-x="518" d="M342 0H176v1556h166V0z"/><glyph unicode="m" glyph-name="m" horiz-adv-x="1905" d="M1573 0v713q0 131-56 196t-174 66q-155 0-229-89t-74-274V0H874v713q0 131-56 196t-175 66q-156 0-228-93t-73-307V0H176v1096h135l27-150h8q47 80 132 125t192 45q257 0 336-186h8q49 86 142 136t212 50q186 0 278-95t93-306V0h-166z"/><glyph unicode="n" glyph-name="n" horiz-adv-x="1257" d="M926 0v709q0 134-61 200t-191 66q-172 0-252-93t-80-307V0H176v1096h135l27-150h8q51 81 143 125t205 45q198 0 298-95t100-306V0H926z"/><glyph unicode="o" glyph-name="o" horiz-adv-x="1237" d="M1122 549q0-268-135-418T614-20q-147 0-261 69T177 247t-62 302q0 268 134 417t372 150q230 0 365-153t136-414zm-835 0q0-210 84-320t247-110q163 0 247 109t85 321q0 209-84 317T616 975q-163 0-246-107t-83-319z"/><glyph unicode="p" glyph-name="p" horiz-adv-x="1255" d="M686-20q-107 0-195 39T342 141h-12q12-96 12-182v-451H176v1588h135l23-150h8q64 90 149 130t195 40q218 0 336-149t119-418q0-270-120-419T686-20zm-24 995q-168 0-243-93t-77-296v-37q0-231 77-330t247-100q142 0 222 115t81 317q0 205-80 314T662 975z"/><glyph unicode="q" glyph-name="q" horiz-adv-x="1255" d="M590 119q166 0 242 89t81 300v37q0 230-78 331T588 977q-146 0-223-113t-78-321q0-207 76-315t227-109zM565-20q-212 0-331 149T115 545q0 269 120 420t334 151q225 0 346-170h9l24 150h131V-492H913v469q0 100 11 170h-13Q796-20 565-20z"/><glyph unicode="r" glyph-name="r" horiz-adv-x="836" d="M676 1116q73 0 131-12l-23-154q-68 15-120 15-133 0-227-108t-95-269V0H176v1096h137l19-203h8q61 107 147 165t189 58z"/><glyph unicode="s" glyph-name="s" horiz-adv-x="977" d="M883 299q0-153-114-236T449-20q-218 0-340 69v154q79-40 169-63t175-23q130 0 200 41t70 127q0 64-55 109T451 502q-153 57-217 99t-96 97-32 129q0 134 109 211t299 78q177 0 346-72l-59-135q-165 68-299 68-118 0-178-37t-60-102q0-44 22-75t73-59 192-81q195-71 263-143t69-181z"/><glyph unicode="t" glyph-name="t" horiz-adv-x="723" d="M530 117q44 0 85 6t65 14V10q-27-13-79-21t-95-9q-318 0-318 335v652H31v80l157 69 70 234h96v-254h318V967H354V322q0-99 47-152t129-53z"/><glyph unicode="u" glyph-name="u" horiz-adv-x="1257" d="M332 1096V385q0-134 61-200t191-66q172 0 251 94t80 307v576h166V0H944l-24 147h-9Q860 66 770 23T563-20q-200 0-299 95T164 379v717h168z"/><glyph unicode="v" glyph-name="v" horiz-adv-x="1026" d="M416 0L0 1096h178l236-650q80-228 94-296h8q11 53 69 219t263 727h178L610 0H416z"/><glyph unicode="w" glyph-name="w" horiz-adv-x="1593" d="M1071 0L870 643q-19 59-71 268h-8q-40-175-70-270L514 0H322L23 1096h174q106-413 161-629t64-291h8q11 57 35 147t43 144l201 629h180l196-629q56-172 76-289h8q4 36 21 111t209 807h172L1268 0h-197z"/><glyph unicode="x" glyph-name="x" horiz-adv-x="1073" d="M440 561L59 1096h189l289-420 288 420h187L631 561 1032 0H844L537 444 227 0H39l401 561z"/><glyph unicode="y" glyph-name="y" horiz-adv-x="1032" d="M2 1096h178l240-625q79-214 98-309h8q13 51 54 174t272 760h178L559-152q-70-185-163-262t-230-78q-76 0-150 17v133q55-12 123-12 171 0 244 192L444-6 2 1096z"/><glyph unicode="z" glyph-name="z" horiz-adv-x="958" d="M877 0H82v113l598 854H119v129h743V967L272 129h605V0z"/><glyph unicode="{" glyph-name="braceleft" horiz-adv-x="776" d="M475 12q0-102 58-148t172-48v-140q-190 2-294 87T307 2v303q0 104-63 148T61 498v141q130 2 188 48t58 142v306q0 155 108 241t290 86v-139q-230-6-230-199V829q0-215-223-254v-12q223-39 223-254V12z"/><glyph unicode="|" glyph-name="bar" horiz-adv-x="1128" d="M494 1556h141V-496H494v2052z"/><glyph unicode="}" glyph-name="braceright" horiz-adv-x="776" d="M522 575q-223 39-223 254v295q0 193-227 199v139q184 0 289-87t106-240V829q0-97 59-142t189-48V498q-122 0-185-44t-63-149V2q0-153-102-238T72-324v140q111 2 169 48t58 148v297q0 114 55 174t168 80v12z"/><glyph unicode="~" glyph-name="asciitilde" horiz-adv-x="1171" d="M338 713q-53 0-116-33t-118-88v151q100 109 244 109 68 0 124-14t146-52q66-28 115-41t96-14q54 0 118 32t118 89V702Q963 592 821 592q-72 0-135 16t-135 49q-75 32-120 44t-93 12z"/><glyph glyph-name="nbspace" horiz-adv-x="532"/><glyph unicode="¡" glyph-name="exclamdown" horiz-adv-x="547" d="M219 684h105l51-1057H168l51 1057zm174 299q0-135-121-135-60 0-90 35t-30 100q0 63 31 99t89 36q51 0 86-32t35-103z"/><glyph unicode="¢" glyph-name="cent" horiz-adv-x="1171" d="M971 240q-105-54-252-60V-20H586v206q-203 32-299 168t-97 387q0 508 396 570v172h135v-164q75-3 146-19t120-40l-49-140q-133 51-242 51-172 0-253-105t-81-323q0-212 79-313t247-102q141 0 283 59V240z"/><glyph unicode="£" glyph-name="sterling" horiz-adv-x="1171" d="M682 1481q190 0 360-84l-61-133q-154 77-297 77-123 0-185-62t-63-202V782h422V655H436V434q0-100-32-168T297 154h795V0H63v141q205 47 205 291v223H70v127h198v316q0 178 112 280t302 103z"/><glyph unicode="¤" glyph-name="currency" horiz-adv-x="1171" d="M184 723q0 122 74 229l-135 140 94 92 135-133q104 73 234 73 127 0 229-73l137 133 95-92-134-138q74-113 74-231 0-131-74-234l131-135-92-92-137 133q-102-71-229-71-134 0-234 73L217 264l-92 92 133 136q-74 107-74 231zm129 0q0-112 78-192t195-80q116 0 195 79t79 193q0 114-80 195t-194 81q-116 0-194-82t-79-194z"/><glyph unicode="¥" glyph-name="yen" horiz-adv-x="1171" d="M584 735l379 727h174L721 692h262V565H666V395h317V268H666V0H502v268H186v127h316v170H186v127h256L31 1462h178l375-727z"/><glyph unicode="¦" glyph-name="brokenbar" horiz-adv-x="1128" d="M494 1556h141V780H494v776zm0-1275h141v-777H494v777z"/><glyph unicode="§" glyph-name="section" horiz-adv-x="1057" d="M139 809q0 86 43 154t121 106q-74 40-116 95t-42 141q0 121 103 190t301 70q94 0 173-14t177-54l-53-131q-98 39-165 52t-144 14q-116 0-174-29t-58-94q0-60 61-102t216-97q186-68 261-143t75-183q0-90-41-160T762 512q153-81 153-227 0-140-117-216T469-8Q251-8 123 57v148q78-37 175-59t179-23q134 0 204 38t71 109q0 46-24 75t-78 58-169 72q-142 52-209 97T172 674t-33 135zm146 20q0-77 66-129t233-114l49-19q137 80 137 191 0 83-73 139t-259 113q-68-19-110-69t-43-112z"/><glyph unicode="¨" glyph-name="dieresis" horiz-adv-x="1182" d="M309 1393q0 52 26 75t64 23q38 0 65-23t28-75q0-50-27-74t-66-25q-37 0-63 24t-27 75zm381 0q0 52 26 75t64 23q37 0 64-23t28-75q0-50-27-74t-65-25q-37 0-63 24t-27 75z"/><glyph unicode="©" glyph-name="copyright" horiz-adv-x="1704" d="M893 1059q-125 0-192-87t-68-241q0-168 63-249t195-81q86 0 211 45V322q-48-20-98-34t-121-14q-194 0-298 120T481 731q0 209 110 332t302 123q128 0 246-60l-58-118q-108 51-188 51zM100 731q0 200 100 375t275 276 377 101q200 0 375-100t276-275 101-377q0-197-97-370T1235 84 852-20Q645-20 470 83T198 360t-98 371zm105 0q0-173 87-323t237-237 323-87q174 0 323 87t236 235 88 325q0 174-87 323t-235 236-325 88q-174 0-323-87t-236-235-88-325z"/><glyph unicode="ª" glyph-name="ordfeminine" horiz-adv-x="725" d="M532 801l-24 84q-92-97-232-97-95 0-150 49T70 989q0 102 77 154t242 59l117 4v39q0 133-148 133-100 0-204-51l-43 96q114 56 247 56 130 0 198-52t69-174V801h-93zM193 989q0-100 112-100 201 0 201 180v49l-98-4q-112-4-163-32t-52-93z"/><glyph unicode="«" glyph-name="guillemotleft" horiz-adv-x="1018" d="M82 551l342 407 119-69-289-350 289-351-119-71L82 524v27zm395 0l344 407 117-69-287-350 287-351-117-71-344 407v27z"/><glyph unicode="¬" glyph-name="logicalnot" horiz-adv-x="1171" d="M1065 791V264H928v389H104v138h961z"/><glyph unicode="­" glyph-name="uni00AD" horiz-adv-x="659" d="M84 473v152h491V473H84z"/><glyph unicode="®" glyph-name="registered" horiz-adv-x="1704" d="M723 762h108q80 0 128 41t49 106q0 75-43 107t-136 33H723V762zm434 151q0-80-42-141t-120-92l238-395h-168L858 639H723V285H575v891h261q166 0 243-65t78-198zM100 731q0 200 100 375t275 276 377 101q200 0 375-100t276-275 101-377q0-197-97-370T1235 84 852-20Q645-20 470 83T198 360t-98 371zm105 0q0-173 87-323t237-237 323-87q174 0 323 87t236 235 88 325q0 174-87 323t-235 236-325 88q-174 0-323-87t-236-235-88-325z"/><glyph unicode="¯" glyph-name="overscore" horiz-adv-x="1024" d="M1030 1556H-6v127h1036v-127z"/><glyph unicode="°" glyph-name="degree" horiz-adv-x="877" d="M127 1171q0 130 90 221t221 91q130 0 221-90t91-222q0-84-41-155T595 902t-157-42q-130 0-220 90t-91 221zm115 0q0-82 58-139t140-57q80 0 137 56t58 140q0 84-56 140t-139 57q-83 0-140-57t-58-140z"/><glyph unicode="±" glyph-name="plusminus" horiz-adv-x="1171" d="M653 791h412V653H653V227H514v426H104v138h410v428h139V791zM104 1v138h961V1H104z"/><glyph unicode="²" glyph-name="twosuperior" horiz-adv-x="711" d="M653 586H49v104l236 230q89 86 130 134t57 87 17 92q0 68-40 102t-103 35q-52 0-101-19t-118-69l-66 88q131 111 283 111 132 0 205-65t74-177q0-80-44-155T387 870L213 705h440V586z"/><glyph unicode="³" glyph-name="threesuperior" horiz-adv-x="711" d="M627 1255q0-80-41-131t-109-75q176-47 176-209 0-128-92-199t-260-72q-152 0-268 56v123q147-68 270-68 211 0 211 162 0 145-231 145H166v107h119q103 0 152 39t50 108q0 61-40 95t-107 34q-66 0-122-21t-112-57l-69 90q63 45 133 72t164 27q136 0 214-59t79-167z"/><glyph unicode="´" glyph-name="acute" horiz-adv-x="1182" d="M393 1266q48 62 103 150t88 153h202v-21q-44-65-131-160t-151-147H393v25z"/><glyph unicode="µ" glyph-name="mu" horiz-adv-x="1268" d="M342 381q0-262 254-262 171 0 250 94t80 307v576h166V0H956l-26 147h-10Q809-20 580-20q-150 0-238 92h-10q10-84 10-244v-320H176v1588h166V381z"/><glyph unicode="¶" glyph-name="paragraph" horiz-adv-x="1341" d="M1120-260h-114v1712H793V-260H678v819q-62-18-146-18-216 0-317 125t-102 376q0 260 109 387t341 127h557V-260z"/><glyph unicode="·" glyph-name="middot" horiz-adv-x="545" d="M152 723q0 66 31 100t87 35q58 0 90-34t33-101q0-65-33-100t-90-35q-51 0-84 31t-34 104z"/><glyph unicode="¸" glyph-name="cedilla" horiz-adv-x="465" d="M436-289q0-97-76-150t-227-53q-51 0-96 9v106q45-8 104-8 79 0 119 20t41 74q0 43-39 69t-149 44L201 0h110l-55-115q180-39 180-174z"/><glyph unicode="¹" glyph-name="onesuperior" horiz-adv-x="711" d="M338 1462h143V586H348v579q0 91 6 181-22-22-49-44t-162-118l-67 96 262 182z"/><glyph unicode="º" glyph-name="ordmasculine" horiz-adv-x="768" d="M702 1135q0-164-85-255t-236-92q-146 0-230 93t-85 254q0 163 84 253t235 91q152 0 234-91t83-253zm-514 0q0-122 45-183t150-61q105 0 151 61t46 183q0 123-46 182t-151 59q-103 0-149-59t-46-182z"/><glyph unicode="»" glyph-name="guillemotright" horiz-adv-x="1018" d="M936 524L592 117l-117 71 287 351-287 350 117 69 344-407v-27zm-395 0L197 117 80 188l287 351L80 889l117 69 344-407v-27z"/><glyph unicode="¼" glyph-name="onequarter" horiz-adv-x="1597" d="M1298 1462L395 0H252l903 1462h143zm-705 0h143V586H603v579q0 91 6 181-22-22-49-44t-162-118l-67 96 262 182zm896-1259h-125V1h-145v202H817v101l408 579h139V320h125V203zm-270 117v195q0 134 6 209-5-12-17-31t-27-42-30-45-26-40L957 320h262z"/><glyph unicode="½" glyph-name="onehalf" horiz-adv-x="1597" d="M1230 1462L327 0H184l903 1462h143zm-666 0h143V586H574v579q0 91 6 181-22-22-49-44t-162-118l-67 96 262 182zM1499 1H895v104l236 230q89 86 130 134t57 87 17 92q0 68-40 102t-103 35q-52 0-101-19t-118-69l-66 88q131 111 283 111 132 0 205-65t74-177q0-80-44-155t-192-214l-174-165h440V1z"/><glyph unicode="¾" glyph-name="threequarters" horiz-adv-x="1597" d="M876 1255q0-80-41-131t-109-75q176-47 176-209 0-128-92-199t-260-72q-152 0-268 56v123q147-68 270-68 211 0 211 162 0 145-231 145H415v107h119q103 0 152 39t50 108q0 61-40 95t-107 34q-66 0-122-21t-112-57l-69 90q63 45 133 72t164 27q136 0 214-59t79-167zm514 207L487 0H344l903 1462h143zm179-1259h-125V1h-145v202H897v101l408 579h139V320h125V203zm-270 117v195q0 134 6 209-5-12-17-31t-27-42-30-45-26-40l-168-246h262z"/><glyph unicode="¿" glyph-name="questiondown" horiz-adv-x="879" d="M590 684v-51q0-122-37-196T418 279Q297 173 267 136t-43-76-13-95q0-100 66-156t188-57q80 0 155 19t173 67l59-135q-197-96-395-96-190 0-298 93T51-37q0 70 17 122t50 97 76 86 99 88q101 88 133 146t33 151v31h131zm49 299q0-135-121-135-59 0-90 34t-31 101q0 64 33 99t88 36q51 0 86-32t35-103z"/><glyph unicode="À" glyph-name="Agrave" horiz-adv-x="1296" d="M1120 0L938 465H352L172 0H0l578 1468h143L1296 0h-176zM885 618l-170 453q-33 86-68 211-22-96-63-211L412 618h473zm-161 961H614q-65 52-154 148t-129 159v21h203q32-69 89-159t101-144v-25z"/><glyph unicode="Á" glyph-name="Aacute" horiz-adv-x="1296" d="M1120 0L938 465H352L172 0H0l578 1468h143L1296 0h-176zM885 618l-170 453q-33 86-68 211-22-96-63-211L412 618h473zm-359 986q48 62 103 150t88 153h202v-21q-44-65-131-160t-151-147H526v25z"/><glyph unicode="Â" glyph-name="Acircumflex" horiz-adv-x="1296" d="M1120 0L938 465H352L172 0H0l578 1468h143L1296 0h-176zM885 618l-170 453q-33 86-68 211-22-96-63-211L412 618h473zm-582 984q127 136 178 200t74 105h166q22-42 76-108t180-197v-23H858q-88 55-221 186-136-134-219-186H303v23z"/><glyph unicode="Ã" glyph-name="Atilde" horiz-adv-x="1296" d="M1120 0L938 465H352L172 0H0l578 1468h143L1296 0h-176zM885 618l-170 453q-33 86-68 211-22-96-63-211L412 618h473zm-93 963q-43 0-84 18t-80 41-76 41-71 19q-50 0-75-30t-40-91h-98q13 121 70 189t149 69q46 0 89-18t82-41 75-41 68-19q49 0 73 29t39 92h99q-13-121-69-189t-151-69z"/><glyph unicode="Ä" glyph-name="Adieresis" horiz-adv-x="1296" d="M1120 0L938 465H352L172 0H0l578 1468h143L1296 0h-176zM885 618l-170 453q-33 86-68 211-22-96-63-211L412 618h473zM364 1731q0 52 26 75t64 23q38 0 65-23t28-75q0-50-27-74t-66-25q-37 0-63 24t-27 75zm381 0q0 52 26 75t64 23q37 0 64-23t28-75q0-50-27-74t-65-25q-37 0-63 24t-27 75z"/><glyph unicode="Å" glyph-name="Aring" horiz-adv-x="1296" d="M1120 0L938 465H352L172 0H0l578 1468h143L1296 0h-176zM885 618l-170 453q-33 86-68 211-22-96-63-211L412 618h473zm-15 969q0-98-61-157t-164-60q-101 0-161 58t-60 157q0 98 60 155t161 58q101 0 163-59t62-152zm-108-2q0 56-33 86t-84 31q-51 0-84-30t-33-87q0-56 30-86t87-31q52 0 84 30t33 87z"/><glyph unicode="Æ" glyph-name="AE" horiz-adv-x="1788" d="M1665 0H915v465H401L174 0H-2l698 1462h969v-151h-580V840h541V690h-541V152h580V0zM469 618h446v693H797L469 618z"/><glyph unicode="Ç" glyph-name="Ccedilla" horiz-adv-x="1292" d="M827 1331q-241 0-380-160T307 731q0-287 134-443t384-157q153 0 349 55V37q-152-57-375-57-323 0-498 196T125 733q0 226 84 396t244 262 376 92q230 0 402-84l-72-146q-166 78-332 78zM950-289q0-97-76-150t-227-53q-51 0-96 9v106q45-8 104-8 79 0 119 20t41 74q0 43-39 69t-149 44L715 0h110l-55-115q180-39 180-174z"/><glyph unicode="È" glyph-name="Egrave" horiz-adv-x="1139" d="M1016 0H201v1462h815v-151H371V840h606V690H371V152h645V0zM713 1579H603q-65 52-154 148t-129 159v21h203q32-69 89-159t101-144v-25z"/><glyph unicode="É" glyph-name="Eacute" horiz-adv-x="1139" d="M1016 0H201v1462h815v-151H371V840h606V690H371V152h645V0zM456 1604q48 62 103 150t88 153h202v-21q-44-65-131-160t-151-147H456v25z"/><glyph unicode="Ê" glyph-name="Ecircumflex" horiz-adv-x="1139" d="M1016 0H201v1462h815v-151H371V840h606V690H371V152h645V0zM263 1602q127 136 178 200t74 105h166q22-42 76-108t180-197v-23H818q-88 55-221 186-136-134-219-186H263v23z"/><glyph unicode="Ë" glyph-name="Edieresis" horiz-adv-x="1139" d="M1016 0H201v1462h815v-151H371V840h606V690H371V152h645V0zM327 1731q0 52 26 75t64 23q38 0 65-23t28-75q0-50-27-74t-66-25q-37 0-63 24t-27 75zm381 0q0 52 26 75t64 23q37 0 64-23t28-75q0-50-27-74t-65-25q-37 0-63 24t-27 75z"/><glyph unicode="Ì" glyph-name="Igrave" horiz-adv-x="571" d="M201 0v1462h170V0H201zm197 1579H288q-65 52-154 148T5 1886v21h203q32-69 89-159t101-144v-25z"/><glyph unicode="Í" glyph-name="Iacute" horiz-adv-x="571" d="M201 0v1462h170V0H201zm-22 1604q48 62 103 150t88 153h202v-21q-44-65-131-160t-151-147H179v25z"/><glyph unicode="Î" glyph-name="Icircumflex" horiz-adv-x="571" d="M201 0v1462h170V0H201zM-57 1602q127 136 178 200t74 105h166q22-42 76-108t180-197v-23H498q-88 55-221 186-136-134-219-186H-57v23z"/><glyph unicode="Ï" glyph-name="Idieresis" horiz-adv-x="571" d="M201 0v1462h170V0H201zM5 1731q0 52 26 75t64 23q38 0 65-23t28-75q0-50-27-74t-66-25q-37 0-63 24t-27 75zm381 0q0 52 26 75t64 23q37 0 64-23t28-75q0-50-27-74t-65-25q-37 0-63 24t-27 75z"/><glyph unicode="Ð" glyph-name="Eth" horiz-adv-x="1479" d="M1352 745q0-362-196-553T590 0H201v649H47v150h154v663h434q337 0 527-187t190-530zm-181-6q0 576-569 576H371V799h379V649H371V147h190q610 0 610 592z"/><glyph unicode="Ñ" glyph-name="Ntilde" horiz-adv-x="1544" d="M1343 0h-194L350 1227h-8q16-216 16-396V0H201v1462h192l797-1222h8q-2 27-9 173t-5 210v839h159V0zM935 1581q-43 0-84 18t-80 41-76 41-71 19q-50 0-75-30t-40-91h-98q13 121 70 189t149 69q46 0 89-18t82-41 75-41 68-19q49 0 73 29t39 92h99q-13-121-69-189t-151-69z"/><glyph unicode="Ò" glyph-name="Ograve" horiz-adv-x="1595" d="M1470 733q0-351-177-552T799-20q-323 0-498 197T125 735q0 357 176 553t500 197q315 0 492-200t177-552zm-1165 0q0-297 126-450t368-154q243 0 367 153t124 451q0 295-123 447t-366 153q-243 0-369-153T305 733zm602 846H797q-65 52-154 148t-129 159v21h203q32-69 89-159t101-144v-25z"/><glyph unicode="Ó" glyph-name="Oacute" horiz-adv-x="1595" d="M1470 733q0-351-177-552T799-20q-323 0-498 197T125 735q0 357 176 553t500 197q315 0 492-200t177-552zm-1165 0q0-297 126-450t368-154q243 0 367 153t124 451q0 295-123 447t-366 153q-243 0-369-153T305 733zm354 871q48 62 103 150t88 153h202v-21q-44-65-131-160t-151-147H659v25z"/><glyph unicode="Ô" glyph-name="Ocircumflex" horiz-adv-x="1595" d="M1470 733q0-351-177-552T799-20q-323 0-498 197T125 735q0 357 176 553t500 197q315 0 492-200t177-552zm-1165 0q0-297 126-450t368-154q243 0 367 153t124 451q0 295-123 447t-366 153q-243 0-369-153T305 733zm143 869q127 136 178 200t74 105h166q22-42 76-108t180-197v-23h-119q-88 55-221 186-136-134-219-186H448v23z"/><glyph unicode="Õ" glyph-name="Otilde" horiz-adv-x="1595" d="M1470 733q0-351-177-552T799-20q-323 0-498 197T125 735q0 357 176 553t500 197q315 0 492-200t177-552zm-1165 0q0-297 126-450t368-154q243 0 367 153t124 451q0 295-123 447t-366 153q-243 0-369-153T305 733zm637 848q-43 0-84 18t-80 41-76 41-71 19q-50 0-75-30t-40-91h-98q13 121 70 189t149 69q46 0 89-18t82-41 75-41 68-19q49 0 73 29t39 92h99q-13-121-69-189t-151-69z"/><glyph unicode="Ö" glyph-name="Odieresis" horiz-adv-x="1595" d="M1470 733q0-351-177-552T799-20q-323 0-498 197T125 735q0 357 176 553t500 197q315 0 492-200t177-552zm-1165 0q0-297 126-450t368-154q243 0 367 153t124 451q0 295-123 447t-366 153q-243 0-369-153T305 733zm217 998q0 52 26 75t64 23q38 0 65-23t28-75q0-50-27-74t-66-25q-37 0-63 24t-27 75zm381 0q0 52 26 75t64 23q37 0 64-23t28-75q0-50-27-74t-65-25q-37 0-63 24t-27 75z"/><glyph unicode="×" glyph-name="multiply" horiz-adv-x="1171" d="M940 1176l96-99-352-354 350-352-96-99-354 351-348-351-101 99 350 352-352 352 100 101 353-355 354 355z"/><glyph unicode="Ø" glyph-name="Oslash" horiz-adv-x="1595" d="M1470 733q0-351-177-552T799-20Q564-20 416 80L315-61 195 18l108 154Q125 370 125 735q0 357 176 553t500 197q209 0 366-94l97 135 120-80-106-148q192-202 192-565zm-180 0q0 272-110 426L508 211q115-82 291-82 243 0 367 153t124 451zm-985 0q0-262 101-416l669 943q-106 73-274 73-243 0-369-153T305 733z"/><glyph unicode="Ù" glyph-name="Ugrave" horiz-adv-x="1491" d="M1305 1462V516q0-250-151-393T739-20q-264 0-408 144T186 520v942h170V508q0-183 100-281t294-98q185 0 285 98t100 283v952h170zm-449 117H746q-65 52-154 148t-129 159v21h203q32-69 89-159t101-144v-25z"/><glyph unicode="Ú" glyph-name="Uacute" horiz-adv-x="1491" d="M1305 1462V516q0-250-151-393T739-20q-264 0-408 144T186 520v942h170V508q0-183 100-281t294-98q185 0 285 98t100 283v952h170zm-705 142q48 62 103 150t88 153h202v-21q-44-65-131-160t-151-147H600v25z"/><glyph unicode="Û" glyph-name="Ucircumflex" horiz-adv-x="1491" d="M1305 1462V516q0-250-151-393T739-20q-264 0-408 144T186 520v942h170V508q0-183 100-281t294-98q185 0 285 98t100 283v952h170zm-912 140q127 136 178 200t74 105h166q22-42 76-108t180-197v-23H948q-88 55-221 186-136-134-219-186H393v23z"/><glyph unicode="Ü" glyph-name="Udieresis" horiz-adv-x="1491" d="M1305 1462V516q0-250-151-393T739-20q-264 0-408 144T186 520v942h170V508q0-183 100-281t294-98q185 0 285 98t100 283v952h170zm-844 269q0 52 26 75t64 23q38 0 65-23t28-75q0-50-27-74t-66-25q-37 0-63 24t-27 75zm381 0q0 52 26 75t64 23q37 0 64-23t28-75q0-50-27-74t-65-25q-37 0-63 24t-27 75z"/><glyph unicode="Ý" glyph-name="Yacute" horiz-adv-x="1147" d="M573 731l390 731h184L659 567V0H487v559L0 1462h186l387-731zm-131 873q48 62 103 150t88 153h202v-21q-44-65-131-160t-151-147H442v25z"/><glyph unicode="Þ" glyph-name="Thorn" horiz-adv-x="1251" d="M1145 784q0-227-151-346T555 319H371V0H201v1462h170v-256h215q281 0 420-103t139-319zM371 465h168q226 0 327 71t101 236q0 149-95 218t-297 69H371V465z"/><glyph unicode="ß" glyph-name="germandbls" horiz-adv-x="1274" d="M1049 1266q0-135-143-250-88-70-116-103t-28-67q0-32 13-53t49-49 114-80q140-95 191-173t51-180q0-160-97-245T807-20q-188 0-295 69v154q63-39 141-62t150-24q215 0 215 182 0 75-41 128T825 551q-127 82-175 143t-48 146q0 63 34 116t106 106q75 57 107 102t32 98q0 80-68 122t-195 43q-276 0-276-223V0H176v1202q0 178 110 271t332 94q206 0 318-78t113-223z"/><glyph unicode="à" glyph-name="agrave" horiz-adv-x="1139" d="M850 0l-33 156h-8Q727 53 646 17T442-20q-163 0-255 84T94 303q0 332 531 348l186 6v68q0 129-55 190t-178 62q-137 0-310-84l-51 127q81 44 177 69t194 25q196 0 290-87t95-279V0H850zM475 117q155 0 243 85t89 238v99l-166-7q-198-7-285-61t-88-170q0-90 54-137t153-47zm453 1124H818q-65 52-154 148t-129 159v21h203q32-69 89-159t101-144v-25z"/><glyph unicode="á" glyph-name="aacute" horiz-adv-x="1139" d="M850 0l-33 156h-8Q727 53 646 17T442-20q-163 0-255 84T94 303q0 332 531 348l186 6v68q0 129-55 190t-178 62q-137 0-310-84l-51 127q81 44 177 69t194 25q196 0 290-87t95-279V0H850zM475 117q155 0 243 85t89 238v99l-166-7q-198-7-285-61t-88-170q0-90 54-137t153-47zm-39 1149q48 62 103 150t88 153h202v-21q-44-65-131-160t-151-147H436v25z"/><glyph unicode="â" glyph-name="acircumflex" horiz-adv-x="1139" d="M850 0l-33 156h-8Q727 53 646 17T442-20q-163 0-255 84T94 303q0 332 531 348l186 6v68q0 129-55 190t-178 62q-137 0-310-84l-51 127q81 44 177 69t194 25q196 0 290-87t95-279V0H850zM475 117q155 0 243 85t89 238v99l-166-7q-198-7-285-61t-88-170q0-90 54-137t153-47zm9 1147q127 136 178 200t74 105h166q22-42 76-108t180-197v-23h-119q-88 55-221 186-136-134-219-186H484v23z"/><glyph unicode="ã" glyph-name="atilde" horiz-adv-x="1139" d="M850 0l-33 156h-8Q727 53 646 17T442-20q-163 0-255 84T94 303q0 332 531 348l186 6v68q0 129-55 190t-178 62q-137 0-310-84l-51 127q81 44 177 69t194 25q196 0 290-87t95-279V0H850zM475 117q155 0 243 85t89 238v99l-166-7q-198-7-285-61t-88-170q0-90 54-137t153-47zm502 1126q-43 0-84 18t-80 41-76 41-71 19q-50 0-75-30t-40-91h-98q13 121 70 189t149 69q46 0 89-18t82-41 75-41 68-19q49 0 73 29t39 92h99q-13-121-69-189t-151-69z"/><glyph unicode="ä" glyph-name="adieresis" horiz-adv-x="1139" d="M850 0l-33 156h-8Q727 53 646 17T442-20q-163 0-255 84T94 303q0 332 531 348l186 6v68q0 129-55 190t-178 62q-137 0-310-84l-51 127q81 44 177 69t194 25q196 0 290-87t95-279V0H850zM475 117q155 0 243 85t89 238v99l-166-7q-198-7-285-61t-88-170q0-90 54-137t153-47zm60 1276q0 52 26 75t64 23q38 0 65-23t28-75q0-50-27-74t-66-25q-37 0-63 24t-27 75zm381 0q0 52 26 75t64 23q37 0 64-23t28-75q0-50-27-74t-65-25q-37 0-63 24t-27 75z"/><glyph unicode="å" glyph-name="aring" horiz-adv-x="1139" d="M850 0l-33 156h-8Q727 53 646 17T442-20q-163 0-255 84T94 303q0 332 531 348l186 6v68q0 129-55 190t-178 62q-137 0-310-84l-51 127q81 44 177 69t194 25q196 0 290-87t95-279V0H850zM475 117q155 0 243 85t89 238v99l-166-7q-198-7-285-61t-88-170q0-90 54-137t153-47zm585 1341q0-98-61-157t-164-60q-101 0-161 58t-60 157q0 98 60 155t161 58q101 0 163-59t62-152zm-108-2q0 56-33 86t-84 31q-51 0-84-30t-33-87q0-56 30-86t87-31q52 0 84 30t33 87z"/><glyph unicode="æ" glyph-name="ae" horiz-adv-x="1757" d="M94 303q0 161 124 250t378 98l184 6v68q0 129-58 190t-177 62q-144 0-307-84l-52 127q74 41 173 67t198 27q130 0 212-43t124-139q53 88 138 136t196 48q192 0 308-133t116-356V520H950q8-395 322-395 91 0 169 17t163 57V51q-86-38-160-54t-176-17q-289 0-414 233Q773 86 675 33T442-20q-163 0-255 85T94 303zm174-2q0-95 53-139t142-45q145 0 229 84t84 239v99l-158-7q-186-8-268-62t-82-169zm957 676q-121 0-190-83t-81-241h519q0 156-64 240t-184 84z"/><glyph unicode="ç" glyph-name="ccedilla" horiz-adv-x="975" d="M614-20q-238 0-368 146T115 541q0 275 132 425t378 150q79 0 158-17t124-40l-51-141q-55 22-120 36t-115 15q-334 0-334-426 0-202 81-310t242-108q137 0 281 59V37Q781-20 614-20zm148-269q0-97-76-150t-227-53q-51 0-96 9v106q45-8 104-8 79 0 119 20t41 74q0 43-39 69t-149 44L527 0h110l-55-115q180-39 180-174z"/><glyph unicode="è" glyph-name="egrave" horiz-adv-x="1149" d="M639-20q-243 0-383 148T115 539q0 265 130 421t351 156q206 0 326-135t120-358V518H287q5-193 97-293t261-100q177 0 350 74V51Q907 13 829-3T639-20zm-45 997q-132 0-210-86t-93-238h573q0 157-70 240t-200 84zm373 264H857q-65 52-154 148t-129 159v21h203q32-69 89-159t101-144v-25z"/><glyph unicode="é" glyph-name="eacute" horiz-adv-x="1149" d="M639-20q-243 0-383 148T115 539q0 265 130 421t351 156q206 0 326-135t120-358V518H287q5-193 97-293t261-100q177 0 350 74V51Q907 13 829-3T639-20zm-45 997q-132 0-210-86t-93-238h573q0 157-70 240t-200 84zm-123 289q48 62 103 150t88 153h202v-21q-44-65-131-160t-151-147H471v25z"/><glyph unicode="ê" glyph-name="ecircumflex" horiz-adv-x="1149" d="M639-20q-243 0-383 148T115 539q0 265 130 421t351 156q206 0 326-135t120-358V518H287q5-193 97-293t261-100q177 0 350 74V51Q907 13 829-3T639-20zm-45 997q-132 0-210-86t-93-238h573q0 157-70 240t-200 84zm-79 287q127 136 178 200t74 105h166q22-42 76-108t180-197v-23h-119q-88 55-221 186-136-134-219-186H515v23z"/><glyph unicode="ë" glyph-name="edieresis" horiz-adv-x="1149" d="M639-20q-243 0-383 148T115 539q0 265 130 421t351 156q206 0 326-135t120-358V518H287q5-193 97-293t261-100q177 0 350 74V51Q907 13 829-3T639-20zm-45 997q-132 0-210-86t-93-238h573q0 157-70 240t-200 84zm-275 416q0 52 26 75t64 23q38 0 65-23t28-75q0-50-27-74t-66-25q-37 0-63 24t-27 75zm381 0q0 52 26 75t64 23q37 0 64-23t28-75q0-50-27-74t-65-25q-37 0-63 24t-27 75z"/><glyph unicode="ì" glyph-name="igrave" horiz-adv-x="518" d="M342 0H176v1096h166V0zm13 1241H245q-65 52-154 148t-129 159v21h203q32-69 89-159t101-144v-25z"/><glyph unicode="í" glyph-name="iacute" horiz-adv-x="518" d="M342 0H176v1096h166V0zM169 1266q48 62 103 150t88 153h202v-21q-44-65-131-160t-151-147H169v25z"/><glyph unicode="î" glyph-name="icircumflex" horiz-adv-x="518" d="M342 0H176v1096h166V0zM-77 1264q127 136 178 200t74 105h166q22-42 76-108t180-197v-23H478q-88 55-221 186-136-134-219-186H-77v23z"/><glyph unicode="ï" glyph-name="idieresis" horiz-adv-x="518" d="M342 0H176v1096h166V0zM-20 1393q0 52 26 75t64 23q38 0 65-23t28-75q0-50-27-74t-66-25q-37 0-63 24t-27 75zm381 0q0 52 26 75t64 23q37 0 64-23t28-75q0-50-27-74t-65-25q-37 0-63 24t-27 75z"/><glyph unicode="ð" glyph-name="eth" horiz-adv-x="1221" d="M1122 563q0-281-130-432T614-20q-222 0-361 134T113 475q0 230 131 361t352 131q226 0 326-121l8 4q-57 214-262 405l-271-155-73 108 233 133q-92 62-186 111l69 117q156-73 258-148l238 138 76-107-207-119q152-143 234-342t83-428zm-168-51q0 147-90 232t-246 85q-337 0-337-360 0-167 87-258t250-92q175 0 255 100t81 293z"/><glyph unicode="ñ" glyph-name="ntilde" horiz-adv-x="1257" d="M926 0v709q0 134-61 200t-191 66q-172 0-252-93t-80-307V0H176v1096h135l27-150h8q51 81 143 125t205 45q198 0 298-95t100-306V0H926zM802 1243q-43 0-84 18t-80 41-76 41-71 19q-50 0-75-30t-40-91h-98q13 121 70 189t149 69q46 0 89-18t82-41 75-41 68-19q49 0 73 29t39 92h99q-13-121-69-189t-151-69z"/><glyph unicode="ò" glyph-name="ograve" horiz-adv-x="1237" d="M1122 549q0-268-135-418T614-20q-147 0-261 69T177 247t-62 302q0 268 134 417t372 150q230 0 365-153t136-414zm-835 0q0-210 84-320t247-110q163 0 247 109t85 321q0 209-84 317T616 975q-163 0-246-107t-83-319zm711 692H888q-65 52-154 148t-129 159v21h203q32-69 89-159t101-144v-25z"/><glyph unicode="ó" glyph-name="oacute" horiz-adv-x="1237" d="M1122 549q0-268-135-418T614-20q-147 0-261 69T177 247t-62 302q0 268 134 417t372 150q230 0 365-153t136-414zm-835 0q0-210 84-320t247-110q163 0 247 109t85 321q0 209-84 317T616 975q-163 0-246-107t-83-319zm192 717q48 62 103 150t88 153h202v-21q-44-65-131-160t-151-147H479v25z"/><glyph unicode="ô" glyph-name="ocircumflex" horiz-adv-x="1237" d="M1122 549q0-268-135-418T614-20q-147 0-261 69T177 247t-62 302q0 268 134 417t372 150q230 0 365-153t136-414zm-835 0q0-210 84-320t247-110q163 0 247 109t85 321q0 209-84 317T616 975q-163 0-246-107t-83-319zm-5 715q127 136 178 200t74 105h166q22-42 76-108t180-197v-23H837q-88 55-221 186-136-134-219-186H282v23z"/><glyph unicode="õ" glyph-name="otilde" horiz-adv-x="1237" d="M1122 549q0-268-135-418T614-20q-147 0-261 69T177 247t-62 302q0 268 134 417t372 150q230 0 365-153t136-414zm-835 0q0-210 84-320t247-110q163 0 247 109t85 321q0 209-84 317T616 975q-163 0-246-107t-83-319zm742 694q-43 0-84 18t-80 41-76 41-71 19q-50 0-75-30t-40-91h-98q13 121 70 189t149 69q46 0 89-18t82-41 75-41 68-19q49 0 73 29t39 92h99q-13-121-69-189t-151-69z"/><glyph unicode="ö" glyph-name="odieresis" horiz-adv-x="1237" d="M1122 549q0-268-135-418T614-20q-147 0-261 69T177 247t-62 302q0 268 134 417t372 150q230 0 365-153t136-414zm-835 0q0-210 84-320t247-110q163 0 247 109t85 321q0 209-84 317T616 975q-163 0-246-107t-83-319zm49 844q0 52 26 75t64 23q38 0 65-23t28-75q0-50-27-74t-66-25q-37 0-63 24t-27 75zm381 0q0 52 26 75t64 23q37 0 64-23t28-75q0-50-27-74t-65-25q-37 0-63 24t-27 75z"/><glyph unicode="÷" glyph-name="divide" horiz-adv-x="1171" d="M104 653v138h961V653H104zm367-280q0 60 29 90t84 31q52 0 81-31t29-90q0-57-29-89t-81-32q-52 0-82 31t-31 90zm0 698q0 60 29 90t84 31q52 0 81-31t29-90q0-57-29-89t-81-32q-52 0-82 31t-31 90z"/><glyph unicode="ø" glyph-name="oslash" horiz-adv-x="1237" d="M1122 549q0-268-135-418T614-20q-154 0-266 69L264-68 150 10l94 131Q115 293 115 549q0 268 134 417t372 150q154 0 270-76l84 119 117-76-97-133q127-152 127-401zm-835 0q0-171 53-273l465 646q-75 53-189 53-163 0-246-107t-83-319zm663 0q0 164-51 264L434 170q71-51 184-51 163 0 247 109t85 321z"/><glyph unicode="ù" glyph-name="ugrave" horiz-adv-x="1257" d="M332 1096V385q0-134 61-200t191-66q172 0 251 94t80 307v576h166V0H944l-24 147h-9Q860 66 770 23T563-20q-200 0-299 95T164 379v717h168zm650 145H872q-65 52-154 148t-129 159v21h203q32-69 89-159t101-144v-25z"/><glyph unicode="ú" glyph-name="uacute" horiz-adv-x="1257" d="M332 1096V385q0-134 61-200t191-66q172 0 251 94t80 307v576h166V0H944l-24 147h-9Q860 66 770 23T563-20q-200 0-299 95T164 379v717h168zm174 170q48 62 103 150t88 153h202v-21q-44-65-131-160t-151-147H506v25z"/><glyph unicode="û" glyph-name="ucircumflex" horiz-adv-x="1257" d="M332 1096V385q0-134 61-200t191-66q172 0 251 94t80 307v576h166V0H944l-24 147h-9Q860 66 770 23T563-20q-200 0-299 95T164 379v717h168zm-46 168q127 136 178 200t74 105h166q22-42 76-108t180-197v-23H841q-88 55-221 186-136-134-219-186H286v23z"/><glyph unicode="ü" glyph-name="udieresis" horiz-adv-x="1257" d="M332 1096V385q0-134 61-200t191-66q172 0 251 94t80 307v576h166V0H944l-24 147h-9Q860 66 770 23T563-20q-200 0-299 95T164 379v717h168zm10 297q0 52 26 75t64 23q38 0 65-23t28-75q0-50-27-74t-66-25q-37 0-63 24t-27 75zm381 0q0 52 26 75t64 23q37 0 64-23t28-75q0-50-27-74t-65-25q-37 0-63 24t-27 75z"/><glyph unicode="ý" glyph-name="yacute" horiz-adv-x="1032" d="M2 1096h178l240-625q79-214 98-309h8q13 51 54 174t272 760h178L559-152q-70-185-163-262t-230-78q-76 0-150 17v133q55-12 123-12 171 0 244 192L444-6 2 1096zm409 170q48 62 103 150t88 153h202v-21q-44-65-131-160t-151-147H411v25z"/><glyph unicode="þ" glyph-name="thorn" horiz-adv-x="1255" d="M344 948q66 89 151 128t191 40q215 0 335-150t120-417q0-268-120-418T686-20q-222 0-344 161h-12l4-34q8-77 8-140v-459H176v2048h166v-466q0-52-6-142h8zm320 27q-168 0-244-92t-78-293v-41q0-231 77-330t247-100q303 0 303 432 0 215-74 319T664 975z"/><glyph unicode="ÿ" glyph-name="ydieresis" horiz-adv-x="1032" d="M2 1096h178l240-625q79-214 98-309h8q13 51 54 174t272 760h178L559-152q-70-185-163-262t-230-78q-76 0-150 17v133q55-12 123-12 171 0 244 192L444-6 2 1096zm488 297q0 52 26 75t64 23q38 0 65-23t28-75q0-50-27-74t-66-25q-37 0-63 24t-27 75zm381 0q0 52 26 75t64 23q37 0 64-23t28-75q0-50-27-74t-65-25q-37 0-63 24t-27 75z"/><glyph unicode="–" glyph-name="endash" horiz-adv-x="1024" d="M82 473v152h860V473H82z"/><glyph unicode="—" glyph-name="emdash" horiz-adv-x="2048" d="M82 473v152h1884V473H82z"/><glyph unicode="‘" glyph-name="quoteleft" horiz-adv-x="348" d="M37 961l-12 22q22 90 71 224t105 255h123q-66-254-103-501H37z"/><glyph unicode="’" glyph-name="quoteright" horiz-adv-x="348" d="M309 1462l15-22q-26-100-75-232T147 961H25q70 285 102 501h182z"/><glyph unicode="‚" glyph-name="quotesinglbase" horiz-adv-x="502" d="M350 238l15-23q-26-100-75-232T188-264H63Q90-160 122-7t46 245h182z"/><glyph unicode="“" glyph-name="quotedblleft" horiz-adv-x="717" d="M406 961l-15 22q56 215 178 479h123q-30-115-59-259t-43-242H406zm-369 0l-12 22q22 90 71 224t105 255h123q-66-254-103-501H37z"/><glyph unicode="”" glyph-name="quotedblright" horiz-adv-x="717" d="M309 1462l15-22q-26-100-75-232T147 961H25q70 285 102 501h182zm369 0l14-22q-24-91-72-224T516 961H391q26 100 59 254t46 247h182z"/><glyph unicode="„" glyph-name="quotedblbase" horiz-adv-x="829" d="M309 238l15-22q-26-100-75-232T147-263H25Q95 22 127 238h182zm369 0l14-22q-24-91-72-224T516-263H391q26 100 59 254t46 247h182z"/><glyph unicode="•" glyph-name="bullet" horiz-adv-x="770" d="M164 748q0 121 56 184t165 63q105 0 163-62t58-185q0-119-57-183t-164-65q-107 0-164 65t-57 183z"/><glyph unicode="‹" glyph-name="guilsinglleft" horiz-adv-x="623" d="M82 551l342 407 119-69-289-350 289-351-119-71L82 524v27z"/><glyph unicode="›" glyph-name="guilsinglright" horiz-adv-x="623" d="M541 524L197 117 80 188l287 351L80 889l117 69 344-407v-27z"/></font>
</defs>
</svg>
